<?xml version="1.0" standalone="no"?>
<!DOCTYPE svg PUBLIC "-//W3C//DTD SVG 1.1//EN" "http://www.w3.org/Graphics/SVG/1.1/DTD/svg11.dtd">
<svg xmlns="http://www.w3.org/2000/svg">
<defs >
<font id="Salsa" horiz-adv-x="456" ><font-face
    font-family="Salsa"
    units-per-em="1000"
    panose-1="2 0 5 3 6 0 0 2 0 4"
    ascent="974"
    descent="-252"
    alphabetic="0" />
<glyph unicode=" " glyph-name="space" horiz-adv-x="282" />
<glyph unicode="!" glyph-name="exclam" horiz-adv-x="318" d="M118 120Q150 135 183 135Q243 135 243 73Q243 40 221 17T167 -6T119 12T102 62T118 120ZM75 728Q111 750 152 750T216 732T239 680T226 528T212 346T219 240Q202 228 178 228T140 239T125 272Q125
392 124 456T110 604T75 728Z" />
<glyph unicode="&quot;" glyph-name="quotedbl" horiz-adv-x="454" d="M50 569Q87 635 87 700Q87 723 83 743Q115 750 136 750Q201 750 201 694Q201 652 162 602T83 551Q62 551 50 569ZM253 569Q290 635 290 700Q290 723 286 743Q317 750 339 750Q404 750 404
694Q404 652 365 602T286 551Q265 551 253 569Z" />
<glyph unicode="#" glyph-name="numbersign" horiz-adv-x="589" d="M273 458Q339 452 372 452Q392 564 393 654Q417 662 441 662T481 650T497 612T460 453Q517 456 563 466Q574 449 574 430T560 398T524 385Q471 385 443 387L431 331Q425 304 415 252Q472 254
521 265Q532 248 532 229T518 197T482 184Q431 184 405 186Q392 100 383 2Q361 -6 336 -6Q277 -6 277 43Q277 59 312 191Q248 195 217 196Q201 95 193 -4Q171 -12 146 -12Q87 -12 87 37Q87 55 125 196Q64 192 26 184Q15 201 15 220T29 252T67 265T143 263Q163 340
173 397Q118 396 68 385Q57 402 57 421T71 453T109 466T185 464Q202 568 203 648Q227 656 251 656T291 644T307 605T273 458ZM227 257Q299 251 328 251Q343 303 355 361L361 392Q294 396 257 397Q243 345 227 257Z" />
<glyph unicode="$" glyph-name="dollar" horiz-adv-x="582" d="M322 -1Q325 -72 331 -122Q307 -130 290 -130Q245 -130 245 -91Q245 -50 248 -5Q163 -2 104 38T45 152Q45 192 71 217T133 242T185 234Q177 197 177 185Q177 135 209 108T293 80T378 103T411 167T385
232T319 271T233 300T148 334T82 384T55 464Q55 536 113 587T258 655L251 742Q269 750 289 750T323 735T337 696T336 662Q408 659 461 632T514 550Q514 508 485 480T412 451Q399 451 384 454Q389 471 389 491Q389 535 365 553T296 572T217 557Q189 531 189 497T225
442T312 405T414 371T501 311T537 212Q537 129 476 72T322 -1Z" />
<glyph unicode="&amp;" glyph-name="ampersand" horiz-adv-x="742" d="M532 458Q556 466 588 466T646 443T671 377Q671 260 555 142Q659 85 738 85Q738 -4 653 -4Q574 -4 459 65Q340 -12 225 -12Q136 -12 88 33T40 166Q40 278 148 368Q100 451 100 514Q100 600
171 662T334 724Q396 724 433 694T470 606Q470 560 453 534T426 494T394 462T361 435T322 406T286 379Q348 286 473 195Q543 277 543 355Q543 408 532 458ZM197 296Q164 250 164 199Q164 88 273 88Q327 88 381 119Q266 207 197 296ZM358 540Q367 557 367 580T352
620T306 636T246 620Q225 591 225 544T250 442Q340 503 358 540Z" />
<glyph unicode="&apos;" glyph-name="quotesingle" horiz-adv-x="254" d="M50 570Q86 649 89 750Q148 750 176 740T204 695T161 607T93 552T50 570Z" />
<glyph unicode="(" glyph-name="parenleft" horiz-adv-x="363" d="M217 818Q308 818 308 752Q308 733 293 708T257 651T215 579T178 473T163 330Q163 99 301 -70Q279 -102 250 -102Q207 -102 162 -38T86 132T55 350Q55 621 217 818Z" />
<glyph unicode=")" glyph-name="parenright" horiz-adv-x="363" d="M146 -102Q55 -102 55 -36Q55 -17 70 8T106 65T148 137T185 243T200 386Q200 617 62 786Q84 818 113 818Q156 818 201 754T277 584T308 366Q308 95 146 -102Z" />
<glyph unicode="*" glyph-name="asterisk" horiz-adv-x="484" d="M42 523Q51 578 64 603T104 629Q143 629 216 554Q216 627 190 705Q230 710 244 710Q312 710 312 661Q312 616 273 548Q361 583 408 619Q437 559 437 532Q437 484 361 484Q325 484 285 493Q339 423
394 386Q334 328 306 328Q282 328 270 348Q251 383 246 411T235 465Q181 378 168 327Q85 370 85 403Q85 428 117 455T194 502Q112 523 42 523Z" />
<glyph unicode="+" glyph-name="plus" horiz-adv-x="521" d="M214 208Q119 207 67 193Q55 214 55 241T77 286T136 304Q147 304 221 295Q221 393 206 444Q227 456 254 456T299 434T317 375Q317 372 307 289Q402 290 454 304Q466 283 466 256T444 211T385 193Q374
193 300 202Q300 104 315 53Q294 41 267 41T222 63T204 122Q204 125 214 208Z" />
<glyph unicode="," glyph-name="comma" horiz-adv-x="269" d="M15 -138Q92 -67 92 32Q92 81 70 124Q108 151 145 151Q219 151 219 57Q219 -9 167 -82T57 -156Q34 -156 15 -138Z" />
<glyph unicode="-" glyph-name="hyphen" horiz-adv-x="485" d="M418 304Q430 283 430 256T408 211T359 193T264 201T146 209T67 193Q55 214 55 241T77 286T126 304T221 296T339 288T418 304Z" />
<glyph unicode="." glyph-name="period" horiz-adv-x="257" d="M68 134Q100 151 133 151Q207 151 207 82Q207 45 182 20T122 -6T69 14T50 68T68 134Z" />
<glyph unicode="/" glyph-name="slash" horiz-adv-x="585" d="M36 34Q99 94 170 226Q218 316 230 339T304 497T377 652Q412 716 465 716T545 678Q478 599 368 379Q357 357 318 278Q223 88 206 59Q168 -6 116 -6T36 34Z" />
<glyph unicode="0" glyph-name="zero" horiz-adv-x="612" d="M424 213T429 253T435 339T430 422T412 494Q384 568 300 568Q247 568 210 527Q177 448 177 308Q177 180 214 128Q248 82 312 82Q348 82 373 106T411 172ZM567 346Q567 196 488 92T272 -12Q191 -12 139
31T66 141T45 298Q45 449 124 555T340 662Q421 662 473 617T546 504T567 346Z" />
<glyph unicode="1" glyph-name="one" horiz-adv-x="402" d="M45 514Q101 537 165 594Q196 622 223 642T289 662T357 648Q333 458 333 292T351 6Q323 -6 286 -6T226 18T203 82T219 253T236 535Q225 525 199 495Q141 428 109 428T61 452T45 514Z" />
<glyph unicode="2" glyph-name="two" horiz-adv-x="511" d="M465 43T442 19T376 -6T229 0T67 6Q44 40 44 77T75 156T150 234T237 308T312 390T343 475T321 542T261 568T198 547Q178 517 178 479T184 419Q164 414 151 414Q111 414 84 436T56 497Q56 570 124 616T275
662T412 618T466 495Q466 449 437 402T367 316T284 238Q185 149 185 88Q342 90 453 138Q465 111 465 77Z" />
<glyph unicode="3" glyph-name="three" horiz-adv-x="557" d="M200 419Q180 414 167 414Q127 414 100 436T72 497Q72 570 140 616T291 662T428 622T482 504Q482 414 402 358Q455 341 483 303T512 214Q512 113 429 51T234 -12Q157 -12 101 19T45 112Q45 152 72
176T140 200Q162 200 179 195Q172 175 172 157Q172 121 199 102T272 82T349 111T379 189T353 263T284 289Q261 289 245 301T228 332T233 366Q251 363 269 363Q315 363 337 395T359 471T337 541T277 568T213 548Q194 514 194 478T200 419Z" />
<glyph unicode="4" glyph-name="four" horiz-adv-x="567" d="M450 6Q418 -6 385 -6T331 15T310 75Q310 85 317 176Q156 178 101 184Q25 192 25 259Q169 479 307 626Q339 662 379 662T451 652Q429 502 429 281Q470 289 515 304Q522 282 522 249T498 195T431 174Q436
73 450 6ZM136 273Q185 264 236 264T323 267Q330 332 330 410T327 524Q252 446 136 273Z" />
<glyph unicode="5" glyph-name="five" horiz-adv-x="556" d="M172 121T198 102T271 82T348 115T378 202Q378 316 275 316Q256 316 207 306T125 295T64 307Q87 440 87 559Q87 640 176 640Q364 640 468 670Q480 630 480 598T457 549T398 531T292 538T207 547Q195
492 195 389Q267 404 305 404Q397 404 454 360T511 232Q511 123 430 56T233 -12Q156 -12 101 19T45 112Q45 152 72 176T140 200Q162 200 179 195Q172 175 172 157Q172 121 198 102Z" />
<glyph unicode="6" glyph-name="six" horiz-adv-x="556" d="M176 340Q242 394 328 394T462 351T511 232Q511 131 439 60T261 -12T101 63T45 251T76 453T179 602T348 662Q412 662 455 634T498 550Q498 511 471 488T412 464T364 469Q371 489 371 507Q371 568 312
568Q266 568 226 539Q204 505 190 447T176 340ZM173 255Q173 82 275 82Q321 82 349 117T378 200T355 277T286 306Q222 306 173 255Z" />
<glyph unicode="7" glyph-name="seven" horiz-adv-x="500" d="M58 659Q129 644 237 644Q269 644 328 650T418 657T464 643T480 592T454 504T365 353T275 176T247 7Q216 -6 182 -6T127 10T105 61T142 167T226 303Q353 482 373 560Q333 557 249 543T128 528T68 549T45
598T58 659Z" />
<glyph unicode="8" glyph-name="eight" horiz-adv-x="583" d="M538 212Q538 112 458 50T277 -12T111 33T45 160Q45 218 76 267T166 346Q78 392 78 475T156 610T320 662T457 624T508 512T426 366Q477 346 507 307T538 212ZM238 315Q172 262 172 182Q172 135 205
108T289 81T380 110T421 182T387 253T238 315ZM203 484Q203 428 354 394Q405 432 405 494Q405 530 379 549T306 568T220 542Q203 516 203 484Z" />
<glyph unicode="9" glyph-name="nine" horiz-adv-x="556" d="M381 409Q381 479 355 523T271 568Q234 568 200 545Q178 508 178 463T200 388T261 358Q327 358 381 409ZM380 324Q312 270 227 270T94 313T45 432Q45 528 117 595T293 662T454 589T511 405T479 203T376
50T211 -12Q148 -12 103 15T57 96Q57 134 84 157T143 180T191 175Q184 155 184 136Q184 82 243 82Q281 82 309 104T352 164Q380 237 380 324Z" />
<glyph unicode=":" glyph-name="colon" horiz-adv-x="257" d="M68 134Q100 151 133 151Q207 151 207 82Q207 45 182 20T122 -6T69 14T50 68T68 134ZM68 440Q100 457 133 457Q207 457 207 388Q207 351 182 326T122 300T69 320T50 374T68 440Z" />
<glyph unicode=";" glyph-name="semicolon" horiz-adv-x="279" d="M15 -138Q92 -67 92 32Q92 81 70 124Q108 151 145 151Q219 151 219 57Q219 -9 167 -82T57 -156Q34 -156 15 -138ZM90 440Q122 457 155 457Q229 457 229 388Q229 351 204 326T144 300T91 320T72
374T90 440Z" />
<glyph unicode="&lt;" glyph-name="less" horiz-adv-x="587" d="M538 106Q528 66 482 66Q416 66 287 138T45 297Q54 302 135 341T246 395T336 442Q445 498 503 542Q542 531 542 497T467 412T254 287Q391 168 538 106Z" />
<glyph unicode="=" glyph-name="equal" horiz-adv-x="525" d="M458 221Q470 201 470 173T448 128T399 110T316 117T191 125T67 110Q55 130 55 158T77 203T126 221T213 214T339 206T458 221ZM458 387Q470 367 470 339T448 294T399 276T316 283T191 291T67 276Q55
296 55 324T77 369T126 387T213 380T339 372T458 387Z" />
<glyph unicode="&gt;" glyph-name="greater" horiz-adv-x="587" d="M49 502Q59 542 105 542Q171 542 300 470T542 311Q533 306 452 267T341 213T250 166Q142 110 84 66Q45 77 45 111T120 196T333 321Q196 440 49 502Z" />
<glyph unicode="?" glyph-name="question" horiz-adv-x="515" d="M291 487T309 518T327 583T309 637T256 657T199 625T177 555T183 487Q165 482 150 482Q110 482 83 508T55 575Q55 653 125 701T278 750T410 712T460 602Q460 559 433 515T373 441T313 369T285 288Q285
270 291 249Q266 230 234 230T178 249T154 299T172 359T215 412T265 462ZM170 119Q200 135 228 135Q295 135 295 73Q295 40 273 17T219 -6T171 11T154 60T170 119Z" />
<glyph unicode="@" glyph-name="at" horiz-adv-x="794" d="M474 68Q485 55 485 38Q485 -12 357 -12Q209 -12 122 83T35 337T144 607T412 718T665 622T759 370Q759 271 714 203T583 134Q520 134 490 177T459 292Q405 172 360 146Q339 134 314 134Q249 134 217 177T184
291Q184 414 237 491T393 568T582 540Q562 445 562 337Q562 294 576 263T623 232Q681 232 681 351Q681 488 605 573T397 659Q293 659 203 593Q162 550 138 485T113 351Q113 216 182 132T377 47Q436 47 474 68ZM461 468Q421 479 386 479T325 460Q300 404 300 323Q300
287 313 260T354 232Q385 232 420 324T461 468Z" />
<glyph unicode="A" glyph-name="A" horiz-adv-x="615" d="M224 702Q266 716 300 716Q352 716 381 680T426 576Q431 556 446 488T472 378Q503 247 528 175T610 60Q598 30 571 12T511 -6Q438 -6 404 104Q388 155 375 204Q340 192 289 192T162 203Q131 82 131 21Q131
8 132 2Q119 0 88 0T34 19T10 75Q10 125 106 368T224 702ZM185 287Q225 282 266 282T355 291Q346 332 294 605Q232 444 185 287Z" />
<glyph unicode="B" glyph-name="B" horiz-adv-x="636" d="M66 678Q210 716 317 716Q546 716 546 557Q546 460 455 409Q516 394 556 352T596 245Q596 125 507 60T287 -6T60 46Q91 154 91 337T66 678ZM217 102Q261 88 305 88Q374 88 419 122T464 220Q464 340 334
340Q272 340 208 314Q208 213 217 102ZM207 402Q221 405 248 409T291 416T328 425T363 439T389 461Q414 486 414 534Q414 627 303 627Q267 627 215 615Q207 410 207 402Z" />
<glyph unicode="C" glyph-name="C" horiz-adv-x="612" d="M364 722Q451 722 516 671T581 539Q581 496 557 468T498 440T442 449Q445 465 445 483Q444 546 414 585T327 625T220 588Q191 546 175 478T159 344Q159 234 201 160T334 85Q417 85 446 148Q473 203 473
294Q524 294 558 276T592 215Q592 117 506 53T312 -12Q171 -12 98 81T25 335T116 608T364 722Z" />
<glyph unicode="D" glyph-name="D" horiz-adv-x="656" d="M60 45Q91 194 91 354T66 678Q202 716 307 716Q463 716 544 635T626 387T534 108T277 -6Q165 -6 60 45ZM215 615Q206 493 206 379T217 102Q258 88 309 88T397 111T455 176Q494 254 494 367Q494 476 452
547Q406 627 309 627Q256 627 215 615Z" />
<glyph unicode="E" glyph-name="E" horiz-adv-x="553" d="M511 138Q523 111 523 77T500 19T442 -6Q336 -6 110 6Q92 7 78 17T64 44Q64 97 72 223T81 458T60 710Q134 704 259 704T498 722Q510 700 510 670T487 616T429 592T319 602T207 612Q199 511 198 422Q261
416 333 416T458 437Q470 415 470 385T447 330T391 305T294 317T197 330Q197 172 204 98Q252 94 279 94Q411 94 511 138Z" />
<glyph unicode="F" glyph-name="F" horiz-adv-x="525" d="M197 320Q197 127 218 12Q186 0 150 0T88 23T61 86T71 240T81 415Q81 568 60 710Q134 704 259 704T498 722Q510 700 510 670T487 616T429 592T319 602T207 612Q199 503 197 412Q255 406 325 406T448 427Q460
405 460 375T437 320T381 295T289 307T197 320Z" />
<glyph unicode="G" glyph-name="G" horiz-adv-x="635" d="M418 332L525 340Q585 340 585 279Q585 244 576 170T567 50Q542 46 456 20T311 -6Q169 -6 97 82T24 322Q24 430 63 520T181 666T353 722T511 678T575 559Q575 517 551 489T488 460T435 469Q438 487 438
505Q438 558 408 591T323 625T219 588Q190 547 174 476T158 338Q158 230 200 161T333 91Q400 91 458 130Q462 169 462 242Q422 230 400 230Q345 230 345 288Q345 313 355 341Q382 332 418 332Z" />
<glyph unicode="H" glyph-name="H" horiz-adv-x="688" d="M218 12Q186 0 150 0T88 23T61 86T71 239T81 421Q81 596 60 698Q92 710 128 710T190 687T217 631T215 566T208 495T202 425Q242 421 340 421T491 429Q491 588 470 704Q502 716 538 716T600 693T627 630T617
486T607 321Q607 125 628 6Q596 -6 560 -6T498 17T471 78T479 202T489 320Q391 327 197 327V301Q197 124 218 12Z" />
<glyph unicode="I" glyph-name="I" horiz-adv-x="278" d="M218 12Q186 0 150 0T88 23T61 86T71 239T81 421Q81 596 60 698Q92 710 128 710T190 687T217 624T207 471T197 289Q197 114 218 12Z" />
<glyph unicode="J" glyph-name="J" horiz-adv-x="445" d="M92 722Q170 710 321 710Q380 710 384 647Q390 531 390 438T382 254Q373 143 307 66T138 -11Q82 -11 41 19T0 94T24 167T86 196Q104 196 119 189Q112 171 112 149T127 107T169 87T214 106T242 162Q264
243 264 368T251 611Q235 611 200 604T150 596Q80 596 80 667Q80 692 92 722Z" />
<glyph unicode="K" glyph-name="K" horiz-adv-x="640" d="M359 390Q411 284 486 193T628 82Q628 40 606 17T543 -6Q489 -6 419 69T295 239T221 404Q320 447 390 537T460 716Q503 716 534 701T566 653Q566 601 504 527T359 390ZM218 12Q186 0 150 0T88 23T61 86T71
239T81 421Q81 596 60 698Q92 710 128 710T190 687T217 624T207 471T197 289Q197 114 218 12Z" />
<glyph unicode="L" glyph-name="L" horiz-adv-x="514" d="M60 698Q92 710 129 710Q218 710 218 629Q218 585 208 485T198 276T205 97Q232 94 259 94Q391 94 491 138Q503 111 503 77T480 19T422 -6Q351 -6 111 6Q92 7 78 17T64 44Q64 97 72 223T81 455T60 698Z" />
<glyph unicode="M" glyph-name="M" horiz-adv-x="862" d="M779 654L774 489Q774 353 782 246T818 12Q796 -6 748 -6Q655 -6 655 75Q655 142 661 280T668 496Q614 418 555 304T495 163T500 123Q478 109 442 109T381 129T340 184T282 321T206 498Q180 337 180 213T188
12Q156 0 124 0Q60 0 60 64Q60 113 82 259T105 507T94 696Q148 710 178 710Q233 710 252 671Q282 608 340 471T436 259Q446 280 482 349T543 468T593 586T626 706Q662 716 696 716T755 701T779 654Z" />
<glyph unicode="N" glyph-name="N" horiz-adv-x="666" d="M474 700Q506 716 541 716T599 694T622 641T613 505T604 337Q604 138 622 6Q590 -6 551 -6T489 7Q425 44 190 475Q186 436 186 293T208 12Q177 0 141 0T83 23T60 78T69 212T79 366Q79 565 60 696Q88 710
142 710T218 667Q366 366 501 157Q498 349 498 360Q498 547 474 700Z" />
<glyph unicode="O" glyph-name="O" horiz-adv-x="692" d="M530 364Q530 483 482 556T330 630Q268 630 220 590Q193 548 178 477T162 342Q162 224 210 153T362 82Q419 82 459 128Q530 211 530 364ZM182 -12T106 84T30 337T124 608T363 722T585 624T662 369T568
100T328 -12Z" />
<glyph unicode="P" glyph-name="P" horiz-adv-x="591" d="M61 678Q173 716 293 716T492 665T571 509T497 333T319 261Q243 261 243 319Q243 337 250 357Q277 350 299 350Q368 350 403 388T439 493T401 594T295 627Q260 627 210 615Q202 492 202 397Q202 131 223
12Q191 0 155 0T93 23T66 84T76 216T86 368Q86 542 61 678Z" />
<glyph unicode="Q" glyph-name="Q" horiz-adv-x="692" d="M662 527T662 377T586 127T394 1Q404 -5 437 -24T480 -48T517 -67T558 -85T596 -96Q632 -108 688 -108Q688 -154 666 -184T603 -214T523 -196T459 -157T392 -95T324 -35T226 10Q143 37 87 119T30 335Q30
496 124 609T363 722T585 625ZM362 89Q419 89 459 134Q530 215 530 367Q530 486 482 558T330 630Q269 630 220 591Q193 548 178 479T162 345Q162 227 210 158T362 89Z" />
<glyph unicode="R" glyph-name="R" horiz-adv-x="638" d="M377 340Q422 245 491 174T628 82Q628 40 606 17T543 -6Q490 -6 422 62T304 224T244 389Q316 389 362 427T409 537Q409 627 297 627Q261 627 209 615Q202 480 202 397Q202 131 223 12Q191 0 155 0T93 23T66
84T76 216T86 368Q86 543 61 679Q196 716 318 716Q541 716 541 557Q541 487 494 426T377 340Z" />
<glyph unicode="S" glyph-name="S" horiz-adv-x="562" d="M376 494Q380 514 380 535Q380 632 285 632Q242 632 212 614Q184 581 184 535Q184 505 210 484T274 450T358 420T441 382T506 321T532 225Q532 120 452 54T258 -12Q167 -12 104 33T40 161Q40 203 65 231T126
260T179 251Q171 221 171 197Q171 143 201 112T286 80T373 108T406 182T370 259T281 307T177 345T89 404T52 504Q52 598 133 660T318 722Q394 722 449 692T505 599Q505 554 476 523T403 491Q391 491 376 494Z" />
<glyph unicode="T" glyph-name="T" horiz-adv-x="552" d="M86 713L297 710Q461 710 537 722Q548 701 548 674T524 626T466 604L351 617Q351 610 346 555Q332 420 332 284T353 12Q320 0 284 0T222 20T196 82T206 229T216 433T206 619Q85 613 17 585Q5 608 5 636T28
689T86 713Z" />
<glyph unicode="U" glyph-name="U" horiz-adv-x="664" d="M215 629Q215 554 201 431T186 241T222 130T329 85Q358 85 399 99T464 135Q477 246 477 420T452 704Q484 716 520 716T582 693T609 633T601 506T592 305T602 108Q456 -12 306 -12Q192 -12 129 46T65 216Q65
251 71 342T78 476Q78 627 58 698Q90 710 126 710T188 687T215 629Z" />
<glyph unicode="V" glyph-name="V" horiz-adv-x="620" d="M396 8Q354 -6 320 -6Q269 -6 241 31T194 138Q190 153 166 248Q119 434 90 517T5 644Q17 674 44 692T109 710T170 682T208 612T234 533T257 439T277 349T301 231T326 109Q494 547 494 694Q494 707 493
713Q508 716 524 716Q564 716 589 697T615 641Q615 591 517 346T396 8Z" />
<glyph unicode="W" glyph-name="W" horiz-adv-x="889" d="M696 0Q665 -12 629 -12T573 1T540 40Q521 78 497 169T459 370Q375 103 363 6Q319 -6 284 -6Q227 -6 200 35T161 144Q161 146 146 228T124 342Q101 459 77 538T5 646Q17 676 42 693T98 710Q167 710 197
606Q218 533 247 359T290 109Q403 425 403 527Q403 548 398 556Q419 580 457 580T517 559T552 492T588 310T625 109Q665 235 688 312T737 506T763 695Q763 708 762 714Q775 716 806 716T860 697T884 634T853 490T772 245T696 0Z" />
<glyph unicode="X" glyph-name="X" horiz-adv-x="591" d="M586 36T564 15T509 -6T446 14T395 59T348 130Q310 199 272 287Q143 132 131 0Q5 0 5 83Q5 111 31 146T125 254T233 373Q117 628 6 628Q6 666 28 688T88 710Q155 710 214 641T319 462Q425 579 435 716Q561
716 561 639Q561 611 534 577T449 483T355 381Q386 308 396 288T423 235T452 186T480 150T512 122T544 113T574 119Q586 92 586 64Z" />
<glyph unicode="Y" glyph-name="Y" horiz-adv-x="581" d="M5 658Q29 710 93 710Q212 710 318 368Q380 461 424 557T469 716Q575 716 575 660Q575 621 527 544T424 386T358 266Q355 227 355 170T369 12Q337 0 301 0T239 23T212 81T224 263Q147 563 5 658Z" />
<glyph unicode="Z" glyph-name="Z" horiz-adv-x="555" d="M254 702L449 710Q478 710 499 695T520 651T476 553T375 415T258 255T174 98Q240 94 276 94Q408 94 508 138Q520 111 520 77T497 19T439 -6L43 0Q25 27 25 68T98 217T264 448T382 621Q355 617 297 606Q178
585 131 585Q36 585 36 649Q36 692 48 722Q141 702 254 702Z" />
<glyph unicode="[" glyph-name="bracketleft" horiz-adv-x="358" d="M283 5Q293 -15 293 -41T276 -85T234 -103Q149 -103 94 -98Q55 -95 55 -60T63 133T72 462T61 799Q83 807 107 807H153Q243 807 293 817Q303 801 303 780T285 738T232 717T173 720Q172 685 166
569T160 290T167 -18Q228 -18 283 5Z" />
<glyph unicode="\" glyph-name="backslash" horiz-adv-x="585" d="M36 676Q63 716 115 716T206 651Q223 622 290 488T363 341T389 289T417 235T444 185T477 128Q516 66 545 32Q518 -6 465 -6T377 58Q366 79 305 213T231 369T199 430T170 484T141 534T106 590Q68
645 36 676Z" />
<glyph unicode="]" glyph-name="bracketright" horiz-adv-x="358" d="M75 709Q65 729 65 755T82 799T124 817Q209 817 264 812Q303 809 303 774T295 581T286 252T297 -85Q275 -93 251 -93H205Q115 -93 65 -103Q55 -87 55 -66T73 -24T126 -3T185 -6Q186 29 192
145T198 424T191 732Q130 732 75 709Z" />
<glyph unicode="^" glyph-name="asciicircum" horiz-adv-x="626" d="M130 120Q91 126 68 146T45 196Q45 250 140 348T350 524Q425 332 581 195Q557 146 491 146Q453 146 408 202T296 369Q174 267 130 120Z" />
<glyph unicode="_" glyph-name="underscore" horiz-adv-x="537" d="M85 -61L370 -75Q448 -75 491 -61Q502 -78 502 -98Q502 -142 452 -142L169 -129Q91 -129 46 -142Q35 -125 35 -105Q35 -61 85 -61Z" />
<glyph unicode="`" glyph-name="grave" horiz-adv-x="334" d="M284 610Q276 572 243 572Q199 572 125 612T50 693Q50 721 77 735T145 750Q194 660 284 610Z" />
<glyph unicode="a" glyph-name="a" horiz-adv-x="545" d="M509 471Q482 356 482 241T508 12Q472 0 434 0T381 22T366 87T379 204Q308 52 242 12Q212 -6 180 -6Q104 -6 62 50T20 191Q20 319 91 415T275 512T509 471ZM378 411Q325 427 288 427Q213 427 176 394Q142
310 142 223Q142 177 156 130T201 83Q236 83 291 186T378 411Z" />
<glyph unicode="b" glyph-name="b" horiz-adv-x="564" d="M52 35Q75 234 75 309Q75 519 58 738Q88 750 122 750T180 727T204 669Q204 609 192 478T177 302Q259 456 340 494Q376 512 417 512Q473 512 503 453T534 309Q534 173 460 84T269 -6T52 35ZM172 98Q212
83 267 83T362 104Q411 188 411 287Q411 334 400 378T365 423Q328 423 268 321T172 98Z" />
<glyph unicode="c" glyph-name="c" horiz-adv-x="496" d="M251 -12Q144 -12 87 45T30 209Q30 339 103 428T297 518Q366 518 409 491T452 409Q452 374 424 347T361 319Q353 319 341 321Q344 334 344 344Q344 380 325 405T262 430T180 394Q153 324 153 219Q153 76
261 76Q319 76 347 113T376 198Q410 198 435 181T460 134Q460 69 394 29T251 -12Z" />
<glyph unicode="d" glyph-name="d" horiz-adv-x="558" d="M369 738Q401 750 435 750T491 728T513 672T503 514T493 269T517 12Q481 0 442 0Q376 0 376 93Q376 124 389 204Q347 115 315 72T252 12T187 -6Q111 -6 71 50T30 188T59 342T148 463T275 512T391 494Q389
623 369 738ZM391 409Q342 427 285 427T187 394Q153 313 153 213Q153 167 166 125T209 83Q255 83 313 186T391 409Z" />
<glyph unicode="e" glyph-name="e" horiz-adv-x="486" d="M142 227Q142 155 165 114T242 72T326 108T357 197Q391 197 416 180T441 133Q441 71 375 30T236 -12Q122 -12 71 49T20 232T88 435T271 518Q349 518 396 483T444 373T377 261T212 223Q178 223 142 227ZM143
306Q173 300 206 300Q278 300 327 327Q333 351 333 365Q333 400 308 418T240 436T161 408Q143 356 143 306Z" />
<glyph unicode="f" glyph-name="f" horiz-adv-x="388" d="M104 163Q104 181 95 397Q46 394 17 380Q5 402 5 426T22 465T62 481T95 480Q100 593 172 671T353 750Q414 750 456 724T498 647Q498 611 471 586T407 561Q399 561 387 563Q390 576 390 586Q390 621 375
642T322 664T252 642Q232 615 220 567T208 473H231Q297 473 388 494Q400 474 400 447T377 401T319 383Q318 383 206 397L216 -123Q216 -188 139 -188Q113 -188 71 -176Q104 -45 104 163Z" />
<glyph unicode="g" glyph-name="g" horiz-adv-x="552" d="M392 411Q339 427 287 427T189 396Q153 324 153 243Q153 196 166 152T209 107Q243 107 300 204T392 411ZM242 -164Q306 -164 342 -120T378 -7Q378 27 374 92T368 184Q297 60 244 32Q217 18 187 18Q112
18 71 77T30 221Q30 337 102 424T286 512T512 473Q482 366 482 263Q482 214 489 142T496 34Q496 -89 418 -169T218 -250Q146 -250 95 -223T43 -137Q43 -101 70 -76T134 -51Q142 -51 154 -53Q151 -66 151 -76Q151 -112 178 -138T242 -164Z" />
<glyph unicode="h" glyph-name="h" horiz-adv-x="583" d="M514 404L504 184Q504 96 533 6Q502 -6 470 -6Q383 -6 383 86Q383 154 395 246T407 359Q407 411 360 411Q310 411 249 318T179 161Q181 132 199 12Q168 0 131 0Q54 0 54 75Q54 111 65 216T76 386Q76 599
52 738Q84 750 118 750T174 728T197 666T187 505T176 315Q211 389 278 450T413 512Q514 512 514 404Z" />
<glyph unicode="i" glyph-name="i" horiz-adv-x="255" d="M56 497Q88 506 120 506T176 486T199 435T189 326T178 205Q178 93 199 12Q168 0 132 0T75 16T54 64T66 168T78 287Q78 412 56 497ZM69 723Q104 739 138 739T188 722T205 670T183 610T124 584Q50 584 50
661Q50 695 69 723Z" />
<glyph unicode="j" glyph-name="j" horiz-adv-x="258" d="M63 723Q98 739 132 739T182 722T199 670T177 610T118 584Q44 584 44 661Q44 695 63 723ZM-57 -77Q-60 -91 -60 -100Q-60 -164 -10 -164Q19 -164 39 -129T69 -38Q85 60 85 147Q85 317 48 487Q79 506 118
506T180 485T203 429Q203 283 184 44Q167 -169 62 -227Q21 -250 -34 -250T-129 -226T-168 -161T-141 -98T-77 -75Q-69 -75 -57 -77Z" />
<glyph unicode="k" glyph-name="k" horiz-adv-x="550" d="M176 315Q211 389 280 450T421 512Q521 512 521 406Q521 352 472 291T361 193Q389 144 430 119T540 78Q540 39 522 17T469 -6Q401 -6 336 59T238 206Q302 238 348 282T395 370T368 414Q316 414 253 319T179
161Q181 132 199 12Q168 0 131 0Q54 0 54 75Q54 111 65 216T76 386Q76 599 52 738Q84 750 118 750T174 728T197 666T187 505T176 315Z" />
<glyph unicode="l" glyph-name="l" horiz-adv-x="269" d="M63 738Q95 750 129 750T185 728T208 667T198 513T187 331Q187 168 210 12Q178 0 142 0Q65 0 65 75Q65 111 76 216T87 386Q87 599 63 738Z" />
<glyph unicode="m" glyph-name="m" horiz-adv-x="884" d="M816 404L806 190Q806 93 834 6Q806 -6 770 -6Q685 -6 685 89Q685 132 696 233T707 361Q707 411 666 411Q621 411 559 319T496 175Q501 96 524 18Q486 6 460 6Q375 6 375 101Q375 141 386 235T397 353Q397
403 352 403Q321 403 281 357T214 256T184 167Q189 81 204 12Q172 0 138 0T82 16T60 62T69 168T78 320T55 494Q87 506 123 506T181 485T204 429Q204 411 197 341Q234 407 291 455T405 504Q506 504 506 396Q506 369 503 336Q540 406 598 459T715 512Q816 512 816
404Z" />
<glyph unicode="n" glyph-name="n" horiz-adv-x="586" d="M518 404L508 184Q508 93 536 6Q508 -6 472 -6Q387 -6 387 89Q387 132 398 233T409 361Q409 411 364 411Q331 411 290 364T219 258T184 161Q188 83 204 12Q172 0 138 0T82 16T60 62T69 168T78 320T55 494Q87
506 123 506T181 485T204 433T196 334Q234 405 295 458T417 512Q518 512 518 404Z" />
<glyph unicode="o" glyph-name="o" horiz-adv-x="515" d="M124 -12T72 52T20 232T89 433T266 518Q488 518 488 268Q488 151 416 70T234 -12ZM162 408Q144 350 144 292T148 202T163 138Q186 73 253 73T342 109T364 220Q364 433 263 433Q205 433 162 408Z" />
<glyph unicode="p" glyph-name="p" horiz-adv-x="573" d="M181 98Q222 83 276 83T371 104Q420 188 420 305T379 423Q328 423 265 320T181 98ZM181 303Q287 512 416 512Q484 512 513 457T543 316Q543 194 471 94T290 -6Q228 -6 177 14Q179 -123 194 -237Q162 -249
128 -249T72 -227T50 -158T62 -1T74 173Q74 381 52 494Q84 506 119 506T174 486T194 422T181 303Z" />
<glyph unicode="q" glyph-name="q" horiz-adv-x="554" d="M512 474Q489 275 489 191Q489 -20 516 -238Q486 -250 452 -250T394 -227T370 -169Q370 -109 377 22T387 198Q320 50 251 11Q221 -6 187 -6Q111 -6 71 50T30 190Q30 320 102 416T295 512T512 474ZM392
411Q339 427 302 427Q227 427 188 395Q153 315 153 212Q153 166 166 125T209 83Q244 83 301 186T392 411Z" />
<glyph unicode="r" glyph-name="r" horiz-adv-x="457" d="M168 0T133 0T77 16T55 62T64 170T73 321T50 494Q82 506 113 506T166 485T189 429Q189 411 183 376T176 322Q215 411 268 461T375 512Q412 512 434 486T456 421T436 357T387 332T339 338Q342 350 342 360Q342
401 313 401Q269 401 231 313T179 147Q184 72 199 12Q168 0 133 0Z" />
<glyph unicode="s" glyph-name="s" horiz-adv-x="455" d="M141 182Q138 168 138 159Q138 118 162 96T228 74T297 89T325 136T296 185T225 215T141 239T70 282T40 355Q40 424 113 471T266 518Q354 518 400 482Q427 461 427 427T401 371T336 349Q328 349 316 351Q319
364 319 374Q319 403 297 418T238 433T169 418Q157 402 157 377T186 337T256 310T340 284T411 239T440 162Q440 87 366 38T212 -12T82 16T30 103Q30 139 56 161T121 184Q129 184 141 182Z" />
<glyph unicode="t" glyph-name="t" horiz-adv-x="395" d="M91 653Q123 669 156 669T209 648T230 586T225 493Q300 493 368 514Q380 494 380 468T357 425T309 408T255 414T216 421Q215 412 211 385T203 338Q195 283 195 220Q195 83 284 83Q317 83 360 106Q373 87
373 57T341 11T263 -6Q87 -6 87 194Q87 223 95 299T104 422Q56 419 27 405Q15 423 15 446T32 485T74 501T107 500Q108 508 108 521Q108 596 91 653Z" />
<glyph unicode="u" glyph-name="u" horiz-adv-x="552" d="M63 102L73 310Q73 407 45 494Q73 506 114 506Q194 506 194 417Q194 367 183 277T172 145Q172 95 217 95Q244 95 280 140T343 242T375 335Q369 445 358 494Q390 506 423 506T479 485T502 433T493 330T484
180T502 12Q463 0 432 0Q370 0 370 82Q370 118 378 182Q338 97 281 46T164 -6Q63 -6 63 102Z" />
<glyph unicode="v" glyph-name="v" horiz-adv-x="531" d="M408 90T355 42T249 -6T168 30T127 124T106 243T73 362T10 449Q23 473 49 489T105 506Q152 506 181 446T218 312T237 171T262 92Q296 94 321 135T359 236Q381 344 381 405T375 499Q410 506 435 506Q521
506 521 424Q521 372 500 300T443 159Z" />
<glyph unicode="w" glyph-name="w" horiz-adv-x="772" d="M10 450Q41 506 98 506Q135 506 158 467T190 370T206 253Q221 106 243 92Q282 102 312 211T342 376T336 465Q371 472 396 472Q482 472 482 390Q482 262 495 182T528 86Q556 88 576 130T605 232Q622 345
622 405T616 499Q651 506 676 506Q762 506 762 424Q762 372 741 299T686 156T604 37T507 -12Q452 -12 424 70Q402 132 388 231Q379 198 375 183T361 138T343 92T322 54T294 22Q259 -6 217 -6T147 32T109 129T90 250Q71 408 10 450Z" />
<glyph unicode="x" glyph-name="x" horiz-adv-x="515" d="M510 68Q510 33 492 14T442 -6T387 6T338 48T300 97Q280 128 227 220Q127 125 127 0Q77 0 44 19T10 75T34 143T113 221T186 285Q148 343 111 376T15 432Q15 465 36 485T87 506T139 496T180 472T219 432Q244
403 284 342Q308 370 320 387Q350 432 350 506Q387 506 411 503T457 485T479 441T451 382T380 319T325 273Q368 186 411 136T510 68Z" />
<glyph unicode="y" glyph-name="y" horiz-adv-x="552" d="M63 166L73 310Q73 407 45 494Q73 506 114 506Q194 506 194 417Q194 377 183 304T172 204T173 164T178 134Q184 100 217 100T289 153T351 272T375 375Q370 454 358 494Q390 506 423 506T479 485T502 429Q502
-117 302 -226Q257 -250 200 -250T101 -220T58 -136Q58 -100 85 -76T149 -51Q157 -51 169 -53Q166 -66 166 -76Q166 -164 227 -164Q264 -164 294 -124T342 -26Q377 92 377 188Q347 107 296 58T184 8Q63 8 63 166Z" />
<glyph unicode="z" glyph-name="z" horiz-adv-x="441" d="M205 500L354 503Q389 503 405 489T421 446T388 375T311 296T221 203T154 104Q190 98 241 98Q355 98 408 129Q421 103 421 70T398 16T342 -6T241 1T136 9T27 0Q15 20 15 47Q15 92 75 165T209 314T300 423Q285
420 252 413T200 401Q150 390 108 390T44 408T21 461T34 515Q98 500 205 500Z" />
<glyph unicode="{" glyph-name="braceleft" horiz-adv-x="383" d="M336 761L309 764Q274 762 247 737T219 662Q219 637 232 579T246 488Q246 383 145 342Q193 329 219 296T248 215Q247 182 232 122T217 25T240 -34T297 -58Q311 -58 334 -51Q334 -84 310 -104T245
-124Q187 -124 149 -81T111 46Q111 75 119 121T128 204Q128 308 65 316Q65 351 88 370Q97 378 107 387T123 419T130 475T120 556T110 636Q110 725 156 774T262 823Q301 823 318 804T336 761Z" />
<glyph unicode="|" glyph-name="bar" horiz-adv-x="252" d="M176 -237Q148 -250 123 -250T84 -235T70 -185T78 50T87 479T76 917Q104 930 129 930T168 915T182 875Q182 806 174 641T165 247T176 -237Z" />
<glyph unicode="}" glyph-name="braceright" horiz-adv-x="383" d="M47 -61L74 -64Q109 -62 136 -37T164 38Q164 63 151 121T137 212Q137 317 238 358Q190 371 164 404T135 485Q136 518 151 578T166 675T143 734T86 758Q72 758 49 751Q49 784 73 804T138 824Q196
824 234 781T272 654Q272 625 264 579T255 496Q255 392 318 384Q318 349 296 330Q286 322 276 313T260 281T253 225T263 144T273 64Q273 -25 227 -74T121 -123Q82 -123 65 -104T47 -61Z" />
<glyph unicode="~" glyph-name="asciitilde" horiz-adv-x="526" d="M471 334Q481 311 481 292Q481 258 451 234T380 209T264 230T147 251Q83 251 55 218Q45 241 45 260Q45 290 77 311T156 333T271 317T379 301Q443 301 471 334Z" />
<glyph unicode="&#xa0;" glyph-name="nbspace" horiz-adv-x="282" />
<glyph unicode="&#xa1;" glyph-name="exclamdown" horiz-adv-x="318" d="M200 386Q169 371 135 371Q75 371 75 433Q75 466 97 489T151 512T199 494T216 444T200 386ZM243 -222Q207 -244 166 -244T102 -226T79 -174T92 -22T106 160T99 266Q116 278 140 278T178
267T193 234Q193 114 194 50T208 -98T243 -222Z" />
<glyph unicode="&#xa2;" glyph-name="cent" horiz-adv-x="575" d="M261 654Q279 662 299 662T333 647T347 611T346 582Q424 582 473 555T522 473Q522 438 491 411T419 383Q409 383 397 385Q400 398 400 417T384 460T334 491Q320 399 320 314T325 154Q381 162 408
197T436 274Q474 274 502 257T530 210Q530 153 471 114T333 66L341 -16Q317 -24 300 -24Q255 -24 255 15Q255 27 257 65Q155 75 100 139T45 306T104 481T269 574Q263 626 261 654ZM169 320Q169 173 267 155Q282 296 282 363T277 491Q234 483 202 454Q169 402 169
320Z" />
<glyph unicode="&#xa3;" glyph-name="sterling" horiz-adv-x="569" d="M56 258Q44 278 44 300Q44 349 100 349Q111 349 157 345V375Q157 494 223 578T405 663Q462 663 501 637T540 561Q540 525 513 500T449 475Q441 475 429 477Q432 490 432 500Q432 577 381 577Q275
577 275 375V337H281Q372 337 407 348Q419 328 419 307Q419 258 363 258Q324 258 272 265Q265 158 220 91Q223 91 280 88T383 84Q472 84 547 136Q559 96 559 64T535 10T478 -12Q424 -12 325 -6T152 0T42 -14Q30 6 30 35T53 80T111 97Q121 97 126 96Q151 157 156
270Q100 269 56 258Z" />
<glyph unicode="&#xa4;" glyph-name="currency" horiz-adv-x="526" d="M428 524Q445 517 463 498T481 455T423 379Q433 347 433 318Q433 258 395 212Q459 154 482 139Q454 86 416 86Q387 86 326 157Q285 138 241 138T162 159Q119 112 99 85Q81 93 63 110T45 152T103
229Q92 257 92 288Q92 350 126 398Q70 450 43 469Q49 485 68 503T106 521Q140 521 193 456Q235 477 283 477T368 451Q410 496 428 524ZM267 211Q302 211 331 234T361 290Q361 346 334 376T259 407T180 389Q166 366 166 324Q166 211 267 211Z" />
<glyph unicode="&#xa5;" glyph-name="yen" horiz-adv-x="591" d="M508 181Q519 164 519 144Q519 100 469 100T363 104Q364 82 374 12Q342 0 306 0T244 23T217 81V112Q211 113 196 113Q118 113 73 100Q62 116 62 137Q62 181 109 181T221 175Q223 190 225 222Q214
223 196 223Q118 223 73 210Q62 226 62 247Q62 291 112 291Q113 291 223 286Q146 526 10 605Q34 657 98 657Q168 657 227 569Q274 498 319 382Q390 473 432 543T474 663Q520 663 550 641T581 576Q581 558 535 504T434 384T366 277H397Q475 277 518 291Q529 274
529 254Q529 210 479 210Q438 210 360 215V167H387Q465 167 508 181Z" />
<glyph unicode="&#xa6;" glyph-name="brokenbar" horiz-adv-x="247" d="M85 585L86 736Q86 843 71 917Q99 930 124 930T163 915T177 867T172 749T166 623T168 538Q144 530 123 530T93 543T85 585ZM162 95L161 -56Q161 -163 176 -237Q148 -250 123 -250T84 -235T70
-187T75 -69T81 57T79 142Q103 150 124 150T154 137T162 95Z" />
<glyph unicode="&#xa7;" glyph-name="section" horiz-adv-x="513" d="M113 137T82 177T50 282T99 398Q50 444 50 524T126 660T298 716Q362 716 405 688T449 612T423 535T357 506Q342 506 329 509Q334 526 334 546Q334 590 316 608T258 627T187 612Q171 588 171
553T187 494T231 457T290 431T354 402T413 364Q473 315 473 217Q473 154 436 98Q473 49 473 -24Q473 -124 404 -187T232 -250Q152 -250 96 -209T40 -94Q40 -54 63 -29T118 -4T170 -12Q162 -40 162 -61Q162 -111 188 -138T258 -166T329 -135T357 -52T326 29T249
77T158 116ZM175 353Q168 327 168 306T178 264T210 228T251 204T304 181T357 158Q360 174 360 193T355 229T339 259T316 283T284 303T251 320T212 336T175 353Z" />
<glyph unicode="&#xa8;" glyph-name="dieresis" horiz-adv-x="481" d="M78 726Q104 738 137 738Q187 738 187 686Q187 658 168 640T124 621T84 635T70 675T78 726ZM302 726Q328 738 361 738Q411 738 411 686Q411 658 392 640T348 621T308 635T294 675T302 726Z" />
<glyph unicode="&#xa9;" glyph-name="copyright" horiz-adv-x="799" d="M421 570Q476 570 518 540T561 460Q561 435 544 418T501 400T456 406Q459 415 459 435T443 473T394 491T330 472Q307 413 307 346Q307 203 402 203Q444 203 459 230T475 308Q567 308 567
261Q567 203 512 164T389 124Q299 124 253 180T207 332T265 499T421 570ZM239 -17T142 89T45 345T154 603T410 712T655 610T754 357T647 95T390 -17ZM114 347Q114 219 197 130T398 41T601 134T685 354T608 567T401 654Q292 654 202 592Q114 500 114 347Z" />
<glyph unicode="&#xaa;" glyph-name="ordfeminine" horiz-adv-x="358" d="M316 682Q304 610 304 531T323 399Q308 392 285 392Q232 392 232 448Q232 475 241 514Q225 476 213 454T179 410T131 388Q85 388 60 422T35 507Q35 592 74 649T183 706T316 682ZM235 624Q209
631 184 631T139 618Q123 582 123 544Q123 463 150 463Q167 463 193 514T235 624Z" />
<glyph unicode="&#xab;" glyph-name="guillemotleft" horiz-adv-x="757" d="M413 116Q404 76 357 76T219 144T50 297Q299 454 378 532Q417 521 417 487T368 404T229 287Q317 174 413 116ZM703 116Q694 76 647 76T509 144T340 297Q589 454 668 532Q707 521 707
487T658 404T519 287Q607 174 703 116Z" />
<glyph unicode="&#xac;" glyph-name="logicalnot" horiz-adv-x="568" d="M510 375Q501 296 501 246T523 146Q487 134 456 134T407 150T388 199Q388 213 404 282Q257 289 228 289Q110 289 57 263Q45 279 45 303T65 340T116 354Q331 354 510 375Z" />
<glyph unicode="&#xad;" glyph-name="uni00AD" horiz-adv-x="495" d="M428 299Q440 279 440 254T418 213T371 198T300 205T223 213Q122 213 67 198Q55 218 55 243T77 284T125 299T200 292T313 284T428 299Z" />
<glyph unicode="&#xae;" glyph-name="registered" horiz-adv-x="799" d="M239 -17T142 89T45 345T154 603T410 712T655 610T754 357T647 95T390 -17ZM448 344Q475 289 513 249T590 196Q590 167 574 150T529 133Q477 133 417 216T347 388Q387 388 412 408T438 462Q438
498 388 498Q363 498 328 491Q323 424 323 323T337 144Q320 137 294 137T245 156T222 201T228 279T234 398T219 543Q322 571 400 571Q547 571 547 474Q547 431 519 395T448 344ZM114 347Q114 219 197 130T398 41T601 134T685 354T608 567T401 654Q292 654 202 592Q114
500 114 347Z" />
<glyph unicode="&#xaf;" glyph-name="overscore" horiz-adv-x="457" d="M100 697L273 687Q352 687 396 697Q407 685 407 660Q407 616 357 616L184 626Q105 626 61 616Q50 628 50 653Q50 697 100 697Z" />
<glyph unicode="&#xb0;" glyph-name="degree" horiz-adv-x="393" d="M40 557T84 609T202 662T314 617T353 500T306 375T191 323T81 366T40 473Q40 557 84 609ZM196 406Q227 406 246 432T265 497T249 559T197 582T142 566Q130 535 130 497Q130 406 196 406Z" />
<glyph unicode="&#xb1;" glyph-name="plusminus" horiz-adv-x="525" d="M458 361Q470 341 470 313T448 268T389 250Q376 250 302 259Q302 181 317 140Q297 128 269 128T224 144T206 184T214 265Q119 264 67 250Q55 270 55 298T77 343T136 361Q147 361 221 352Q221
431 206 471Q226 483 254 483T299 467T317 422Q317 418 307 346H312Q407 346 458 361ZM458 116Q470 96 470 68T448 23T399 5T316 12T191 20T67 5Q55 25 55 53T77 98T126 116T213 109T339 101T458 116Z" />
<glyph unicode="&#xb2;" glyph-name="twosuperior" horiz-adv-x="327" d="M248 303L46 309Q35 328 35 353T61 408T119 460T176 508T203 555Q203 586 166 586Q148 586 132 576Q124 558 124 542T127 514Q116 510 97 510T59 525T41 564Q41 605 84 630T177 656T259
634T292 575T269 507T218 454Q145 397 145 370Q239 374 285 402Q292 381 292 358T281 319T248 303Z" />
<glyph unicode="&#xb3;" glyph-name="threesuperior" horiz-adv-x="344" d="M130 426Q126 418 126 405T137 380T165 369Q209 369 209 411Q209 427 200 437T174 448Q140 448 140 482Q140 493 145 504Q152 502 167 502Q204 502 204 550Q204 565 195 575T168 586T135
578Q127 560 127 545T130 516Q118 514 113 514Q85 514 67 528T49 567Q49 611 87 633T175 656T259 635T293 570T246 496Q309 478 309 422T262 333T161 300T71 318T35 373Q35 396 54 412T96 429T130 426Z" />
<glyph unicode="&#xb4;" glyph-name="acute" horiz-adv-x="334" d="M50 610Q140 660 189 750Q229 750 256 736T284 693Q284 653 210 613T91 572Q58 572 50 610Z" />
<glyph unicode="&#xb5;" glyph-name="mu" horiz-adv-x="572" d="M522 5Q493 -6 459 -6T401 16T378 74T385 166Q346 96 286 42T164 -12Q127 -12 104 4Q107 -131 201 -215Q163 -251 123 -251T60 -229T38 -164T55 29T73 293T45 494Q73 506 114 506Q194 506 194 417Q194
367 183 274T172 139Q172 89 217 89Q266 89 330 193T395 355Q390 438 378 494Q410 506 443 506T499 485T522 433T513 327T504 173T522 5Z" />
<glyph unicode="&#xb6;" glyph-name="paragraph" horiz-adv-x="749" d="M392 630H385Q308 630 308 461Q308 358 338 251Q302 241 265 241Q153 241 82 303T10 472T89 645T282 712Q341 712 417 708T530 703Q630 703 727 744Q739 716 739 680T717 621T661 598T601
601T541 612T491 622Q469 547 469 460T478 245T487 64Q487 -30 450 -86T331 -142Q295 -142 269 -123T242 -71Q242 -56 254 -18Q285 -40 317 -40Q389 -40 389 83Q389 184 372 312T354 516T392 630Z" />
<glyph unicode="&#xb7;" glyph-name="middot" horiz-adv-x="257" d="M68 314Q100 331 133 331Q207 331 207 262Q207 225 182 200T122 174T69 194T50 248T68 314Z" />
<glyph unicode="&#xb8;" glyph-name="cedilla" horiz-adv-x="316" d="M139 -120Q122 -93 122 -65Q122 -20 155 9H232Q178 -8 178 -59Q200 -49 230 -49T278 -70T296 -126Q296 -180 259 -215T167 -250Q132 -250 111 -234T89 -184Q89 -172 96 -158Q122 -174 151 -174T198
-165T216 -138Q216 -110 177 -110Q157 -110 139 -120Z" />
<glyph unicode="&#xb9;" glyph-name="onesuperior" horiz-adv-x="289" d="M35 578Q69 588 100 610T152 642T201 653T254 645Q241 557 241 458T252 317Q226 300 195 300Q139 300 139 347Q139 366 148 430T157 568Q152 564 135 547Q99 511 79 511Q35 511 35 578Z" />
<glyph unicode="&#xba;" glyph-name="ordmasculine" horiz-adv-x="350" d="M35 464T35 534T76 655T182 706Q315 706 315 556Q315 485 272 435T163 384T66 424ZM131 621Q122 588 122 557Q122 456 177 456Q208 456 218 474T228 531Q228 633 179 633Q152 633 131 621Z" />
<glyph unicode="&#xbb;" glyph-name="guillemotright" horiz-adv-x="757" d="M344 492Q353 532 400 532T538 464T707 311Q458 154 379 76Q340 87 340 121T389 204T528 321Q440 434 344 492ZM54 492Q63 532 110 532T248 464T417 311Q168 154 89 76Q50 87 50 121T99
204T238 321Q150 434 54 492Z" />
<glyph unicode="&#xbc;" glyph-name="onequarter" horiz-adv-x="719" d="M542 35Q542 36 545 87Q442 90 433 91Q393 96 393 140Q462 255 520 318Q547 347 592 347Q619 347 648 339Q635 278 635 162Q652 165 678 175Q684 157 684 136Q684 86 643 86H636Q638 37
646 0Q624 -6 594 -6Q542 -6 542 35ZM472 158Q495 154 518 154T549 155Q553 185 553 222T551 267Q521 232 472 158ZM105 6Q181 73 297 289Q438 547 479 604T560 662T622 639Q549 573 440 371Q294 99 252 41T169 -17T105 6ZM35 578Q35 511 79 511Q99 511 135 547Q152
564 157 568Q157 494 148 430T139 346T151 313T195 300T252 317Q241 359 241 458T254 645Q230 653 201 653T156 644T103 611T35 578Z" />
<glyph unicode="&#xbd;" glyph-name="onehalf" horiz-adv-x="746" d="M667 -3L465 3Q454 22 454 47T480 102T538 154T596 202T622 249Q622 280 585 280Q567 280 551 270Q543 252 543 236T546 208Q535 204 516 204T478 219T460 258Q460 299 503 324T596 350T678
328T711 269T688 201T638 148Q564 91 564 64Q658 68 704 96Q711 75 711 52T700 13T667 -3ZM105 6Q181 73 297 289Q438 547 479 604T560 662T622 639Q549 573 440 371Q294 99 252 41T169 -17T105 6ZM35 578Q35 511 79 511Q99 511 135 547Q152 564 157 568Q157 494
148 430T139 346T151 313T195 300T252 317Q241 359 241 458T254 645Q230 653 201 653T156 644T103 611T35 578Z" />
<glyph unicode="&#xbe;" glyph-name="threequarters" horiz-adv-x="724" d="M130 426Q126 418 126 405T137 380T165 369Q209 369 209 411Q209 427 200 437T174 448Q140 448 140 482Q140 493 145 504Q152 502 167 502Q204 502 204 550Q204 565 195 575T168 586T135
578Q127 560 127 545T130 516Q118 514 113 514Q85 514 67 528T49 567Q49 611 87 633T175 656T259 635T293 570T246 496Q309 478 309 422T262 333T161 300T71 318T35 373Q35 396 54 412T96 429T130 426ZM112 6Q188 73 304 289Q445 547 486 604T567 662T629 639Q556
573 447 371Q301 99 259 41T176 -17T112 6ZM547 35Q547 36 550 87Q447 90 438 91Q398 96 398 140Q467 255 525 318Q552 347 597 347Q624 347 653 339Q640 278 640 162Q657 165 683 175Q689 157 689 136Q689 86 648 86H641Q643 37 651 0Q629 -6 599 -6Q547 -6 547
35ZM477 158Q500 154 523 154T554 155Q558 185 558 222T556 267Q526 232 477 158Z" />
<glyph unicode="&#xbf;" glyph-name="questiondown" horiz-adv-x="515" d="M224 19T206 -12T188 -77T206 -131T259 -151T316 -119T338 -49T332 19Q350 24 365 24Q405 24 432 -2T460 -69Q460 -147 390 -195T237 -244T105 -206T55 -96Q55 -53 82 -9T142 65T202 137T230
218Q230 236 224 257Q249 276 281 276T337 257T361 207T343 147T300 94T249 44ZM345 387Q315 371 287 371Q220 371 220 433Q220 466 242 489T296 512T344 495T361 446T345 387Z" />
<glyph unicode="&#xc0;" glyph-name="Agrave" horiz-adv-x="615" d="M224 702Q266 716 300 716Q352 716 381 680T426 576Q431 556 446 488T472 378Q503 247 528 175T610 60Q598 30 571 12T511 -6Q438 -6 404 104Q388 155 375 204Q340 192 289 192T162 203Q131
82 131 21Q131 8 132 2Q119 0 88 0T34 19T10 75Q10 125 106 368T224 702ZM185 287Q225 282 266 282T355 291Q346 332 294 605Q232 444 185 287ZM402 810Q394 772 361 772Q317 772 243 812T168 893Q168 921 195 935T263 950Q312 860 402 810Z" />
<glyph unicode="&#xc1;" glyph-name="Aacute" horiz-adv-x="615" d="M224 702Q266 716 300 716Q352 716 381 680T426 576Q431 556 446 488T472 378Q503 247 528 175T610 60Q598 30 571 12T511 -6Q438 -6 404 104Q388 155 375 204Q340 192 289 192T162 203Q131
82 131 21Q131 8 132 2Q119 0 88 0T34 19T10 75Q10 125 106 368T224 702ZM185 287Q225 282 266 282T355 291Q346 332 294 605Q232 444 185 287ZM248 810Q338 860 387 950Q427 950 454 936T482 893Q482 853 408 813T289 772Q256 772 248 810Z" />
<glyph unicode="&#xc2;" glyph-name="Acircumflex" horiz-adv-x="615" d="M224 702Q266 716 300 716Q352 716 381 680T426 576Q431 556 446 488T472 378Q503 247 528 175T610 60Q598 30 571 12T511 -6Q438 -6 404 104Q388 155 375 204Q340 192 289 192T162 203Q131
82 131 21Q131 8 132 2Q119 0 88 0T34 19T10 75Q10 125 106 368T224 702ZM185 287Q225 282 266 282T355 291Q346 332 294 605Q232 444 185 287ZM491 800Q478 772 455 772T385 797T301 852Q210 772 181 772T138 800Q181 833 200 855T239 904T260 932Q290 970 331
970Q360 919 407 869T491 800Z" />
<glyph unicode="&#xc3;" glyph-name="Atilde" horiz-adv-x="615" d="M224 702Q266 716 300 716Q352 716 381 680T426 576Q431 556 446 488T472 378Q503 247 528 175T610 60Q598 30 571 12T511 -6Q438 -6 404 104Q388 155 375 204Q340 192 289 192T162 203Q131
82 131 21Q131 8 132 2Q119 0 88 0T34 19T10 75Q10 125 106 368T224 702ZM185 287Q225 282 266 282T355 291Q346 332 294 605Q232 444 185 287ZM484 901Q494 882 494 856T469 806T412 782T313 801T208 821T140 791Q130 810 130 834T157 879T223 900T320 886T417
871T484 901Z" />
<glyph unicode="&#xc4;" glyph-name="Adieresis" horiz-adv-x="615" d="M224 702Q266 716 300 716Q352 716 381 680T426 576Q431 556 446 488T472 378Q503 247 528 175T610 60Q598 30 571 12T511 -6Q438 -6 404 104Q388 155 375 204Q340 192 289 192T162 203Q131
82 131 21Q131 8 132 2Q119 0 88 0T34 19T10 75Q10 125 106 368T224 702ZM185 287Q225 282 266 282T355 291Q346 332 294 605Q232 444 185 287ZM142 926Q168 938 201 938Q251 938 251 886Q251 858 232 840T188 821T148 835T134 875T142 926ZM366 926Q392 938 425
938Q475 938 475 886Q475 858 456 840T412 821T372 835T358 875T366 926Z" />
<glyph unicode="&#xc5;" glyph-name="Aring" horiz-adv-x="615" d="M224 702Q266 716 300 716Q352 716 381 680T426 576Q431 556 446 488T472 378Q503 247 528 175T610 60Q598 30 571 12T511 -6Q438 -6 404 104Q388 155 375 204Q340 192 289 192T162 203Q131 82
131 21Q131 8 132 2Q119 0 88 0T34 19T10 75Q10 125 106 368T224 702ZM185 287Q225 282 266 282T355 291Q346 332 294 605Q232 444 185 287ZM392 830T363 803T298 776T239 797T217 856T245 922T311 950T370 927T392 867ZM271 852T282 841T307 829T330 837T339 859T328
886T301 898T276 892Q271 883 271 868Z" />
<glyph unicode="&#xc6;" glyph-name="AE" horiz-adv-x="826" d="M203 287Q243 282 290 282T384 291Q380 322 373 386Q358 528 342 611Q307 546 261 431T203 287ZM460 6Q421 6 413 49Q408 78 392 204Q357 192 304 192T175 203Q134 84 128 7Q105 0 79 0T32 16T10
68T58 208T175 460T277 702Q324 716 366 716T494 710T646 704T771 722Q783 700 783 671T760 617T703 592T594 600T467 609Q482 487 491 421Q538 416 609 416T731 431Q743 411 743 382T721 333T665 313T579 320T502 329Q523 173 539 94Q687 94 787 138Q796 110 796
74T772 16T714 -6T595 0T460 6Z" />
<glyph unicode="&#xc7;" glyph-name="Ccedilla" horiz-adv-x="612" d="M278 -120Q261 -93 261 -63T276 -10Q153 2 89 93T25 328Q25 495 116 608T364 722Q451 722 516 671T581 539Q581 496 557 468T498 440T442 449Q445 465 445 483Q444 546 414 585T327 625T220
588Q191 546 175 478T159 344Q159 234 201 160T334 85Q417 85 446 148Q473 203 473 294Q524 294 558 276T592 215Q592 123 515 60T336 -11Q317 -30 317 -59Q339 -49 369 -49T417 -70T435 -126Q435 -180 398 -215T306 -250Q271 -250 250 -234T228 -184Q228 -172
235 -158Q261 -174 290 -174T337 -165T355 -138Q355 -110 316 -110Q296 -110 278 -120Z" />
<glyph unicode="&#xc8;" glyph-name="Egrave" horiz-adv-x="573" d="M511 138Q523 111 523 77T500 19T442 -6Q336 -6 110 6Q92 7 78 17T64 44Q64 97 72 223T81 458T60 710Q134 704 259 704T498 722Q510 700 510 670T487 616T429 592T319 602T207 612Q199 511 198
422Q261 416 333 416T458 437Q470 415 470 385T447 330T391 305T294 317T197 330Q197 172 204 98Q252 94 279 94Q411 94 511 138ZM399 810Q391 772 358 772Q314 772 240 812T165 893Q165 921 192 935T260 950Q309 860 399 810Z" />
<glyph unicode="&#xc9;" glyph-name="Eacute" horiz-adv-x="573" d="M511 138Q523 111 523 77T500 19T442 -6Q336 -6 110 6Q92 7 78 17T64 44Q64 97 72 223T81 458T60 710Q134 704 259 704T498 722Q510 700 510 670T487 616T429 592T319 602T207 612Q199 511 198
422Q261 416 333 416T458 437Q470 415 470 385T447 330T391 305T294 317T197 330Q197 172 204 98Q252 94 279 94Q411 94 511 138ZM235 810Q325 860 374 950Q414 950 441 936T469 893Q469 853 395 813T276 772Q243 772 235 810Z" />
<glyph unicode="&#xca;" glyph-name="Ecircumflex" horiz-adv-x="573" d="M511 138Q523 111 523 77T500 19T442 -6Q336 -6 110 6Q92 7 78 17T64 44Q64 97 72 223T81 458T60 710Q134 704 259 704T498 722Q510 700 510 670T487 616T429 592T319 602T207 612Q199
511 198 422Q261 416 333 416T458 437Q470 415 470 385T447 330T391 305T294 317T197 330Q197 172 204 98Q252 94 279 94Q411 94 511 138ZM479 800Q466 772 443 772T373 797T289 852Q198 772 169 772T126 800Q169 833 188 855T227 904T248 932Q278 970 319 970Q348
919 395 869T479 800Z" />
<glyph unicode="&#xcb;" glyph-name="Edieresis" horiz-adv-x="573" d="M511 138Q523 111 523 77T500 19T442 -6Q336 -6 110 6Q92 7 78 17T64 44Q64 97 72 223T81 458T60 710Q134 704 259 704T498 722Q510 700 510 670T487 616T429 592T319 602T207 612Q199 511
198 422Q261 416 333 416T458 437Q470 415 470 385T447 330T391 305T294 317T197 330Q197 172 204 98Q252 94 279 94Q411 94 511 138ZM141 926Q167 938 200 938Q250 938 250 886Q250 858 231 840T187 821T147 835T133 875T141 926ZM365 926Q390 938 424 938Q474
938 474 886Q474 858 455 840T411 821T371 835T357 875T365 926Z" />
<glyph unicode="&#xcc;" glyph-name="Igrave" horiz-adv-x="278" d="M218 12Q186 0 150 0T88 23T61 86T71 239T81 421Q81 596 60 698Q92 710 128 710T190 687T217 624T207 471T197 289Q197 114 218 12ZM235 810Q227 772 194 772Q150 772 76 812T1 893Q1 921 28
935T96 950Q145 860 235 810Z" />
<glyph unicode="&#xcd;" glyph-name="Iacute" horiz-adv-x="278" d="M218 12Q186 0 150 0T88 23T61 86T71 239T81 421Q81 596 60 698Q92 710 128 710T190 687T217 624T207 471T197 289Q197 114 218 12ZM52 810Q142 860 191 950Q231 950 258 936T286 893Q286 853
212 813T93 772Q60 772 52 810Z" />
<glyph unicode="&#xce;" glyph-name="Icircumflex" horiz-adv-x="278" d="M218 12Q186 0 150 0T88 23T61 86T71 239T81 421Q81 596 60 698Q92 710 128 710T190 687T217 624T207 471T197 289Q197 114 218 12ZM318 800Q305 772 282 772T212 797T128 852Q37 772 8
772T-35 800Q8 833 27 855T66 904T87 932Q117 970 158 970Q187 919 234 869T318 800Z" />
<glyph unicode="&#xcf;" glyph-name="Idieresis" horiz-adv-x="278" d="M218 12Q186 0 150 0T88 23T61 86T71 239T81 421Q81 596 60 698Q92 710 128 710T190 687T217 624T207 471T197 289Q197 114 218 12ZM-23 926Q3 938 36 938Q86 938 86 886Q86 858 67 840T23
821T-17 835T-31 875T-23 926ZM201 926Q227 938 260 938Q310 938 310 886Q310 858 291 840T247 821T207 835T193 875T201 926Z" />
<glyph unicode="&#xd0;" glyph-name="Eth" horiz-adv-x="726" d="M160 401Q158 576 136 670Q280 718 409 718T617 624T696 397Q696 226 618 110Q579 53 516 21T373 -12Q250 -12 130 39Q159 164 161 308Q95 307 52 293Q40 313 40 341T62 386T111 404T160 401ZM277
299Q279 187 285 100Q328 83 382 83T473 107T528 173Q564 253 564 367Q564 470 528 546Q509 584 475 606T391 628T285 613Q276 491 276 389Q359 389 403 404Q415 384 415 356T393 311T334 293Q321 293 277 299Z" />
<glyph unicode="&#xd1;" glyph-name="Ntilde" horiz-adv-x="666" d="M474 700Q506 716 541 716T599 694T622 641T613 505T604 337Q604 138 622 6Q590 -6 551 -6T489 7Q425 44 190 475Q186 436 186 293T208 12Q177 0 141 0T83 23T60 78T69 212T79 366Q79 565 60
696Q88 710 142 710T218 667Q366 366 501 157Q498 349 498 360Q498 547 474 700ZM512 901Q522 882 522 856T497 806T440 782T341 801T236 821T168 791Q158 810 158 834T185 879T251 900T348 886T445 871T512 901Z" />
<glyph unicode="&#xd2;" glyph-name="Ograve" horiz-adv-x="692" d="M530 364Q530 483 482 556T330 630Q268 630 220 590Q193 548 178 477T162 342Q162 224 210 153T362 82Q419 82 459 128Q530 211 530 364ZM182 -12T106 84T30 337T124 608T363 722T585 624T662
369T568 100T328 -12ZM433 810Q425 772 392 772Q348 772 274 812T199 893Q199 921 226 935T294 950Q343 860 433 810Z" />
<glyph unicode="&#xd3;" glyph-name="Oacute" horiz-adv-x="692" d="M530 364Q530 483 482 556T330 630Q268 630 220 590Q193 548 178 477T162 342Q162 224 210 153T362 82Q419 82 459 128Q530 211 530 364ZM182 -12T106 84T30 337T124 608T363 722T585 624T662
369T568 100T328 -12ZM279 810Q369 860 418 950Q458 950 485 936T513 893Q513 853 439 813T320 772Q287 772 279 810Z" />
<glyph unicode="&#xd4;" glyph-name="Ocircumflex" horiz-adv-x="692" d="M530 364Q530 483 482 556T330 630Q268 630 220 590Q193 548 178 477T162 342Q162 224 210 153T362 82Q419 82 459 128Q530 211 530 364ZM182 -12T106 84T30 337T124 608T363 722T585 624T662
369T568 100T328 -12ZM535 800Q522 772 499 772T429 797T345 852Q254 772 225 772T182 800Q225 833 244 855T283 904T304 932Q334 970 375 970Q404 919 451 869T535 800Z" />
<glyph unicode="&#xd5;" glyph-name="Otilde" horiz-adv-x="692" d="M530 364Q530 483 482 556T330 630Q268 630 220 590Q193 548 178 477T162 342Q162 224 210 153T362 82Q419 82 459 128Q530 211 530 364ZM182 -12T106 84T30 337T124 608T363 722T585 624T662
369T568 100T328 -12ZM525 901Q535 882 535 856T510 806T453 782T354 801T249 821T181 791Q171 810 171 834T198 879T264 900T361 886T458 871T525 901Z" />
<glyph unicode="&#xd6;" glyph-name="Odieresis" horiz-adv-x="692" d="M530 364Q530 483 482 556T330 630Q268 630 220 590Q193 548 178 477T162 342Q162 224 210 153T362 82Q419 82 459 128Q530 211 530 364ZM182 -12T106 84T30 337T124 608T363 722T585 624T662
369T568 100T328 -12ZM190 926Q215 938 249 938Q299 938 299 886Q299 858 280 840T236 821T196 835T182 875T190 926ZM414 926Q439 938 473 938Q523 938 523 886Q523 858 504 840T460 821T420 835T406 875T414 926Z" />
<glyph unicode="&#xd7;" glyph-name="multiply" horiz-adv-x="449" d="M340 418Q357 411 375 392T393 354T387 322T362 294Q339 274 285 239Q347 164 394 133Q366 80 328 80Q292 80 256 126Q243 143 214 186Q146 129 111 79Q93 87 75 104T57 148T79 195T163 258Q95
337 55 363Q61 379 80 397T116 415T143 411T160 403T177 386T193 366T212 339T233 308L237 311Q313 375 340 418Z" />
<glyph unicode="&#xd8;" glyph-name="Oslash" horiz-adv-x="692" d="M116 72Q30 167 30 330T124 608T370 722Q459 722 528 677Q528 678 530 680Q554 716 589 716T644 694Q610 658 584 625Q662 531 662 372T568 100T322 -12Q235 -12 173 26Q146 -12 111 -12T58
10Q81 28 116 72ZM194 174Q268 275 319 353T466 579Q415 633 330 633Q266 633 219 592Q191 550 176 479T160 342Q160 238 194 174ZM504 519Q420 403 235 121Q283 79 362 79Q420 79 460 126Q532 211 532 364Q532 454 504 519Z" />
<glyph unicode="&#xd9;" glyph-name="Ugrave" horiz-adv-x="671" d="M215 629Q215 554 201 431T186 241T222 130T329 85Q358 85 399 99T464 135Q477 246 477 420T452 704Q484 716 520 716T582 693T609 633T601 506T592 305T602 108Q456 -12 306 -12Q192 -12 129
46T65 216Q65 251 71 342T78 476Q78 627 58 698Q90 710 126 710T188 687T215 629ZM396 810Q388 772 355 772Q311 772 237 812T162 893Q162 921 189 935T257 950Q306 860 396 810Z" />
<glyph unicode="&#xda;" glyph-name="Uacute" horiz-adv-x="671" d="M215 629Q215 554 201 431T186 241T222 130T329 85Q358 85 399 99T464 135Q477 246 477 420T452 704Q484 716 520 716T582 693T609 633T601 506T592 305T602 108Q456 -12 306 -12Q192 -12 129
46T65 216Q65 251 71 342T78 476Q78 627 58 698Q90 710 126 710T188 687T215 629ZM248 810Q338 860 387 950Q427 950 454 936T482 893Q482 853 408 813T289 772Q256 772 248 810Z" />
<glyph unicode="&#xdb;" glyph-name="Ucircumflex" horiz-adv-x="671" d="M215 629Q215 554 201 431T186 241T222 130T329 85Q358 85 399 99T464 135Q477 246 477 420T452 704Q484 716 520 716T582 693T609 633T601 506T592 305T602 108Q456 -12 306 -12Q192 -12
129 46T65 216Q65 251 71 342T78 476Q78 627 58 698Q90 710 126 710T188 687T215 629ZM515 800Q502 772 479 772T409 797T325 852Q234 772 205 772T162 800Q205 833 224 855T263 904T284 932Q314 970 355 970Q384 919 431 869T515 800Z" />
<glyph unicode="&#xdc;" glyph-name="Udieresis" horiz-adv-x="671" d="M215 629Q215 554 201 431T186 241T222 130T329 85Q358 85 399 99T464 135Q477 246 477 420T452 704Q484 716 520 716T582 693T609 633T601 506T592 305T602 108Q456 -12 306 -12Q192 -12
129 46T65 216Q65 251 71 342T78 476Q78 627 58 698Q90 710 126 710T188 687T215 629ZM176 926Q202 938 235 938Q285 938 285 886Q285 858 266 840T222 821T182 835T168 875T176 926ZM400 926Q426 938 459 938Q509 938 509 886Q509 858 490 840T446 821T406 835T392
875T400 926Z" />
<glyph unicode="&#xdd;" glyph-name="Yacute" horiz-adv-x="581" d="M5 658Q29 710 93 710Q212 710 318 368Q380 461 424 557T469 716Q575 716 575 660Q575 621 527 544T424 386T358 266Q355 227 355 170T369 12Q337 0 301 0T239 23T212 81T224 263Q147 563 5
658ZM234 810Q324 860 373 950Q413 950 440 936T468 893Q468 853 394 813T275 772Q242 772 234 810Z" />
<glyph unicode="&#xde;" glyph-name="Thorn" horiz-adv-x="587" d="M219 12Q186 0 150 0T88 20T62 82T72 229T82 447T61 698Q94 710 130 710T192 690T218 629Q218 611 216 577Q259 582 295 582Q417 582 492 530T567 373T493 197T315 125Q239 125 239 183Q239 201
246 221Q273 214 295 214Q364 214 399 252T435 358T397 462T291 498Q258 498 207 487Q198 402 198 275T219 12Z" />
<glyph unicode="&#xdf;" glyph-name="germandbls" horiz-adv-x="651" d="M104 163Q104 181 95 397Q46 394 17 380Q5 402 5 426T22 465T62 481T95 480Q100 593 175 671T363 750Q431 750 477 719T524 628Q524 592 500 559T446 504Q368 449 368 419T394 370T457 337T531
304T595 249T621 162Q621 83 561 33T423 -18T293 12T241 100Q241 136 267 158T332 181Q340 181 352 179Q349 165 349 156Q349 115 373 92T434 68T488 88T506 141T480 198T416 237T341 268T278 313T251 378T276 447T330 502Q410 564 410 597T391 647T331 664T259
642Q208 581 208 473L216 -123Q216 -188 139 -188Q113 -188 71 -176Q104 -45 104 163Z" />
<glyph unicode="&#xe0;" glyph-name="agrave" horiz-adv-x="552" d="M509 471Q482 356 482 241T508 12Q472 0 434 0T381 22T366 87T379 204Q308 52 242 12Q212 -6 180 -6Q104 -6 62 50T20 191Q20 319 91 415T275 512T509 471ZM378 411Q325 427 288 427Q213 427
176 394Q142 310 142 223Q142 177 156 130T201 83Q236 83 291 186T378 411ZM382 610Q374 572 341 572Q297 572 223 612T148 693Q148 721 175 735T243 750Q292 660 382 610Z" />
<glyph unicode="&#xe1;" glyph-name="aacute" horiz-adv-x="552" d="M509 471Q482 356 482 241T508 12Q472 0 434 0T381 22T366 87T379 204Q308 52 242 12Q212 -6 180 -6Q104 -6 62 50T20 191Q20 319 91 415T275 512T509 471ZM378 411Q325 427 288 427Q213 427
176 394Q142 310 142 223Q142 177 156 130T201 83Q236 83 291 186T378 411ZM230 610Q320 660 369 750Q409 750 436 736T464 693Q464 653 390 613T271 572Q238 572 230 610Z" />
<glyph unicode="&#xe2;" glyph-name="acircumflex" horiz-adv-x="552" d="M509 471Q482 356 482 241T508 12Q472 0 434 0T381 22T366 87T379 204Q308 52 242 12Q212 -6 180 -6Q104 -6 62 50T20 191Q20 319 91 415T275 512T509 471ZM378 411Q325 427 288 427Q213
427 176 394Q142 310 142 223Q142 177 156 130T201 83Q236 83 291 186T378 411ZM472 600Q459 572 436 572T366 597T282 652Q191 572 162 572T119 600Q162 633 181 655T220 704T241 732Q271 770 312 770Q341 719 388 669T472 600Z" />
<glyph unicode="&#xe3;" glyph-name="atilde" horiz-adv-x="552" d="M509 471Q482 356 482 241T508 12Q472 0 434 0T381 22T366 87T379 204Q308 52 242 12Q212 -6 180 -6Q104 -6 62 50T20 191Q20 319 91 415T275 512T509 471ZM378 411Q325 427 288 427Q213 427
176 394Q142 310 142 223Q142 177 156 130T201 83Q236 83 291 186T378 411ZM458 701Q468 682 468 656T443 606T386 582T287 601T182 621T114 591Q104 610 104 634T131 679T197 700T294 686T391 671T458 701Z" />
<glyph unicode="&#xe4;" glyph-name="adieresis" horiz-adv-x="552" d="M509 471Q482 356 482 241T508 12Q472 0 434 0T381 22T366 87T379 204Q308 52 242 12Q212 -6 180 -6Q104 -6 62 50T20 191Q20 319 91 415T275 512T509 471ZM378 411Q325 427 288 427Q213
427 176 394Q142 310 142 223Q142 177 156 130T201 83Q236 83 291 186T378 411ZM128 726Q154 738 187 738Q237 738 237 686Q237 658 218 640T174 621T134 635T120 675T128 726ZM352 726Q377 738 411 738Q461 738 461 686Q461 658 442 640T398 621T358 635T344 675T352
726Z" />
<glyph unicode="&#xe5;" glyph-name="aring" horiz-adv-x="552" d="M509 471Q482 356 482 241T508 12Q472 0 434 0T381 22T366 87T379 204Q308 52 242 12Q212 -6 180 -6Q104 -6 62 50T20 191Q20 319 91 415T275 512T509 471ZM378 411Q325 427 288 427Q213 427
176 394Q142 310 142 223Q142 177 156 130T201 83Q236 83 291 186T378 411ZM368 626T339 599T274 572T215 593T193 652T221 718T287 746T346 723T368 663ZM247 648T258 637T283 625T306 633T315 655T304 682T277 694T252 688Q247 679 247 664Z" />
<glyph unicode="&#xe6;" glyph-name="ae" horiz-adv-x="803" d="M160 316Q138 305 113 305T70 317T52 353Q52 423 129 470T296 518T429 460Q495 518 580 518T713 483T761 373T694 261T529 223Q495 223 459 227Q459 155 482 114T559 72T643 108T674 197Q708 197
733 180T758 133Q758 71 692 30T553 -12Q401 -12 357 100Q328 49 277 21T169 -7T74 27T35 122T91 233T252 284Q303 284 361 270Q368 304 368 337Q368 434 265 434Q225 434 178 416Q157 380 157 345Q157 331 160 316ZM460 306Q490 300 523 300Q594 300 644 327Q650
351 650 365Q650 400 625 418T557 436T478 408Q460 356 460 306ZM347 210Q310 220 265 220T185 209Q161 178 161 129Q161 103 170 84T201 65Q238 65 286 112T347 210Z" />
<glyph unicode="&#xe7;" glyph-name="ccedilla" horiz-adv-x="496" d="M217 -120Q200 -93 200 -63T215 -10Q126 -1 78 55T30 209Q30 339 103 428T297 518Q366 518 409 491T452 409Q452 374 424 347T361 319Q353 319 341 321Q344 334 344 344Q344 380 325 405T262
430T180 394Q153 324 153 219Q153 76 261 76Q319 76 347 113T376 198Q410 198 435 181T460 134Q460 75 404 36T276 -10Q256 -30 256 -59Q278 -49 308 -49T356 -70T374 -126Q374 -180 337 -215T245 -250Q210 -250 189 -234T167 -184Q167 -172 174 -158Q200 -174
229 -174T276 -165T294 -138Q294 -110 255 -110Q235 -110 217 -120Z" />
<glyph unicode="&#xe8;" glyph-name="egrave" horiz-adv-x="496" d="M152 227Q152 155 175 114T252 72T336 108T367 197Q401 197 426 180T451 133Q451 71 385 30T246 -12Q132 -12 81 49T30 232T98 435T281 518Q359 518 406 483T454 373T387 261T222 223Q188 223
152 227ZM153 306Q183 300 216 300Q288 300 337 327Q343 351 343 365Q343 400 318 418T250 436T171 408Q153 356 153 306ZM364 610Q356 572 323 572Q279 572 205 612T130 693Q130 721 157 735T225 750Q274 660 364 610Z" />
<glyph unicode="&#xe9;" glyph-name="eacute" horiz-adv-x="496" d="M152 227Q152 155 175 114T252 72T336 108T367 197Q401 197 426 180T451 133Q451 71 385 30T246 -12Q132 -12 81 49T30 232T98 435T281 518Q359 518 406 483T454 373T387 261T222 223Q188 223
152 227ZM153 306Q183 300 216 300Q288 300 337 327Q343 351 343 365Q343 400 318 418T250 436T171 408Q153 356 153 306ZM204 610Q294 660 343 750Q383 750 410 736T438 693Q438 653 364 613T245 572Q212 572 204 610Z" />
<glyph unicode="&#xea;" glyph-name="ecircumflex" horiz-adv-x="496" d="M152 227Q152 155 175 114T252 72T336 108T367 197Q401 197 426 180T451 133Q451 71 385 30T246 -12Q132 -12 81 49T30 232T98 435T281 518Q359 518 406 483T454 373T387 261T222 223Q188
223 152 227ZM153 306Q183 300 216 300Q288 300 337 327Q343 351 343 365Q343 400 318 418T250 436T171 408Q153 356 153 306ZM456 600Q443 572 420 572T350 597T266 652Q175 572 146 572T103 600Q146 633 165 655T204 704T225 732Q255 770 296 770Q325 719 372
669T456 600Z" />
<glyph unicode="&#xeb;" glyph-name="edieresis" horiz-adv-x="496" d="M152 227Q152 155 175 114T252 72T336 108T367 197Q401 197 426 180T451 133Q451 71 385 30T246 -12Q132 -12 81 49T30 232T98 435T281 518Q359 518 406 483T454 373T387 261T222 223Q188
223 152 227ZM153 306Q183 300 216 300Q288 300 337 327Q343 351 343 365Q343 400 318 418T250 436T171 408Q153 356 153 306ZM111 726Q137 738 170 738Q220 738 220 686Q220 658 201 640T157 621T117 635T103 675T111 726ZM335 726Q360 738 394 738Q444 738 444
686Q444 658 425 640T381 621T341 635T327 675T335 726Z" />
<glyph unicode="&#xec;" glyph-name="igrave" horiz-adv-x="266" d="M219 610Q211 572 178 572Q134 572 60 612T-15 693Q-15 721 12 735T80 750Q129 660 219 610ZM70 497Q102 506 134 506T189 487T212 437T199 329T186 172T204 6Q172 -6 136 -6Q60 -6 60 59Q60
84 74 163T88 292Q88 425 70 497Z" />
<glyph unicode="&#xed;" glyph-name="iacute" horiz-adv-x="266" d="M56 610Q146 660 195 750Q235 750 262 736T290 693Q290 653 216 613T97 572Q64 572 56 610ZM70 497Q102 506 134 506T189 487T212 437T199 329T186 172T204 6Q172 -6 136 -6Q60 -6 60 59Q60
84 74 163T88 292Q88 425 70 497Z" />
<glyph unicode="&#xee;" glyph-name="icircumflex" horiz-adv-x="266" d="M322 600Q309 572 286 572T216 597T132 652Q41 572 12 572T-31 600Q12 633 31 655T70 704T91 732Q121 770 162 770Q191 719 238 669T322 600ZM70 497Q102 506 134 506T189 487T212 437T199
329T186 172T204 6Q172 -6 136 -6Q60 -6 60 59Q60 84 74 163T88 292Q88 425 70 497Z" />
<glyph unicode="&#xef;" glyph-name="idieresis" horiz-adv-x="266" d="M-20 726Q6 738 39 738Q89 738 89 686Q89 658 70 640T26 621T-14 635T-28 675T-20 726ZM204 726Q230 738 263 738Q313 738 313 686Q313 658 294 640T250 621T210 635T196 675T204 726ZM70
497Q102 506 134 506T189 487T212 437T199 329T186 172T204 6Q172 -6 136 -6Q60 -6 60 59Q60 84 74 163T88 292Q88 425 70 497Z" />
<glyph unicode="&#xf0;" glyph-name="eth" horiz-adv-x="538" d="M145 659Q145 698 167 724T225 750Q292 750 364 692Q412 719 434 750Q451 750 463 739T476 712Q476 674 416 639Q508 520 508 342T444 73T256 -18Q152 -18 91 49T30 229T103 419T297 496Q330 496
367 489Q350 551 308 590Q236 553 211 517Q194 517 182 528T169 558T188 594T248 635Q190 659 145 659ZM386 391Q323 406 269 406T180 379Q154 315 154 239T180 113T256 63T356 99Q395 173 395 302Q395 363 386 391Z" />
<glyph unicode="&#xf1;" glyph-name="ntilde" horiz-adv-x="586" d="M518 404L508 184Q508 93 536 6Q508 -6 472 -6Q387 -6 387 89Q387 132 398 233T409 361Q409 411 364 411Q331 411 290 364T219 258T184 161Q188 83 204 12Q172 0 138 0T82 16T60 62T69 168T78
320T55 494Q87 506 123 506T181 485T204 433T196 334Q234 405 295 458T417 512Q518 512 518 404ZM468 718Q478 699 478 673T453 623T396 599T297 618T192 638T124 608Q114 627 114 651T141 696T207 717T304 703T401 688T468 718Z" />
<glyph unicode="&#xf2;" glyph-name="ograve" horiz-adv-x="540" d="M138 -12T86 52T34 232T103 433T280 518Q502 518 502 268Q502 151 430 70T248 -12ZM176 408Q158 350 158 292T162 202T177 138Q200 73 267 73T356 109T378 220Q378 433 277 433Q219 433 176
408ZM346 610Q338 572 305 572Q261 572 187 612T112 693Q112 721 139 735T207 750Q256 660 346 610Z" />
<glyph unicode="&#xf3;" glyph-name="oacute" horiz-adv-x="540" d="M138 -12T86 52T34 232T103 433T280 518Q502 518 502 268Q502 151 430 70T248 -12ZM176 408Q158 350 158 292T162 202T177 138Q200 73 267 73T356 109T378 220Q378 433 277 433Q219 433 176
408ZM210 610Q300 660 349 750Q389 750 416 736T444 693Q444 653 370 613T251 572Q218 572 210 610Z" />
<glyph unicode="&#xf4;" glyph-name="ocircumflex" horiz-adv-x="540" d="M138 -12T86 52T34 232T103 433T280 518Q502 518 502 268Q502 151 430 70T248 -12ZM176 408Q158 350 158 292T162 202T177 138Q200 73 267 73T356 109T378 220Q378 433 277 433Q219 433
176 408ZM461 600Q448 572 425 572T355 597T271 652Q180 572 151 572T108 600Q151 633 170 655T209 704T230 732Q260 770 301 770Q330 719 377 669T461 600Z" />
<glyph unicode="&#xf5;" glyph-name="otilde" horiz-adv-x="540" d="M138 -12T86 52T34 232T103 433T280 518Q502 518 502 268Q502 151 430 70T248 -12ZM176 408Q158 350 158 292T162 202T177 138Q200 73 267 73T356 109T378 220Q378 433 277 433Q219 433 176
408ZM451 701Q461 682 461 656T436 606T379 582T280 601T175 621T107 591Q97 610 97 634T124 679T190 700T287 686T384 671T451 701Z" />
<glyph unicode="&#xf6;" glyph-name="odieresis" horiz-adv-x="540" d="M138 -12T86 52T34 232T103 433T280 518Q502 518 502 268Q502 151 430 70T248 -12ZM176 408Q158 350 158 292T162 202T177 138Q200 73 267 73T356 109T378 220Q378 433 277 433Q219 433 176
408ZM113 726Q138 738 172 738Q222 738 222 686Q222 658 203 640T159 621T119 635T105 675T113 726ZM337 726Q363 738 396 738Q446 738 446 686Q446 658 427 640T383 621T343 635T329 675T337 726Z" />
<glyph unicode="&#xf7;" glyph-name="divide" horiz-adv-x="525" d="M213 146Q243 160 272 160Q326 160 326 104Q326 75 306 54T259 33T216 46T199 83T213 146ZM213 452Q243 466 272 466Q326 466 326 410Q326 381 306 360T259 339T216 352T199 389T213 452ZM458
304Q470 284 470 256T448 211T399 193T316 200T191 208T67 193Q55 213 55 241T77 286T126 304T213 297T339 289T458 304Z" />
<glyph unicode="&#xf8;" glyph-name="oslash" horiz-adv-x="540" d="M95 39Q34 103 34 225T103 433T280 518Q343 518 388 498Q397 517 412 528T442 539Q474 539 492 517Q478 502 445 456Q502 393 502 272T430 66T245 -18Q193 -18 150 0Q127 -35 95 -35T47 -13Q73
11 95 39ZM174 412Q156 353 156 270T173 137Q228 210 258 259T341 407Q318 437 277 437Q218 437 174 412ZM309 250Q248 158 204 87Q230 63 272 63Q336 63 358 102T380 218T369 344Q335 292 309 250Z" />
<glyph unicode="&#xf9;" glyph-name="ugrave" horiz-adv-x="572" d="M83 102L93 310Q93 407 65 494Q93 506 134 506Q214 506 214 417Q214 367 203 277T192 145Q192 95 237 95Q264 95 300 140T363 242T395 335Q389 445 378 494Q410 506 443 506T499 485T522 433T513
330T504 180T522 12Q483 0 452 0Q390 0 390 82Q390 118 398 182Q358 97 301 46T184 -6Q83 -6 83 102ZM350 610Q342 572 309 572Q265 572 191 612T116 693Q116 721 143 735T211 750Q260 660 350 610Z" />
<glyph unicode="&#xfa;" glyph-name="uacute" horiz-adv-x="572" d="M83 102L93 310Q93 407 65 494Q93 506 134 506Q214 506 214 417Q214 367 203 277T192 145Q192 95 237 95Q264 95 300 140T363 242T395 335Q389 445 378 494Q410 506 443 506T499 485T522 433T513
330T504 180T522 12Q483 0 452 0Q390 0 390 82Q390 118 398 182Q358 97 301 46T184 -6Q83 -6 83 102ZM211 610Q301 660 350 750Q390 750 417 736T445 693Q445 653 371 613T252 572Q219 572 211 610Z" />
<glyph unicode="&#xfb;" glyph-name="ucircumflex" horiz-adv-x="572" d="M83 102L93 310Q93 407 65 494Q93 506 134 506Q214 506 214 417Q214 367 203 277T192 145Q192 95 237 95Q264 95 300 140T363 242T395 335Q389 445 378 494Q410 506 443 506T499 485T522
433T513 330T504 180T522 12Q483 0 452 0Q390 0 390 82Q390 118 398 182Q358 97 301 46T184 -6Q83 -6 83 102ZM462 600Q449 572 426 572T356 597T272 652Q181 572 152 572T109 600Q152 633 171 655T210 704T231 732Q261 770 302 770Q331 719 378 669T462 600Z"
/>
<glyph unicode="&#xfc;" glyph-name="udieresis" horiz-adv-x="572" d="M83 102L93 310Q93 407 65 494Q93 506 134 506Q214 506 214 417Q214 367 203 277T192 145Q192 95 237 95Q264 95 300 140T363 242T395 335Q389 445 378 494Q410 506 443 506T499 485T522
433T513 330T504 180T522 12Q483 0 452 0Q390 0 390 82Q390 118 398 182Q358 97 301 46T184 -6Q83 -6 83 102ZM130 726Q155 738 189 738Q239 738 239 686Q239 658 220 640T176 621T136 635T122 675T130 726ZM354 726Q380 738 413 738Q463 738 463 686Q463 658 444
640T400 621T360 635T346 675T354 726Z" />
<glyph unicode="&#xfd;" glyph-name="yacute" horiz-adv-x="577" d="M88 166L98 310Q98 407 70 494Q98 506 138 506Q219 506 219 417Q219 377 208 304T197 204T198 164T202 134Q209 100 242 100T314 153T376 272T400 375Q395 454 383 494Q415 506 448 506T504
485T527 429Q527 -117 327 -226Q282 -250 225 -250T126 -220T83 -136Q83 -100 110 -76T174 -51Q182 -51 194 -53Q191 -66 191 -76Q191 -164 252 -164Q289 -164 319 -124T366 -26Q402 92 402 188Q372 107 321 58T209 8Q88 8 88 166ZM221 610Q311 660 360 750Q400
750 427 736T455 693Q455 653 381 613T262 572Q229 572 221 610Z" />
<glyph unicode="&#xfe;" glyph-name="thorn" horiz-adv-x="577" d="M186 98Q226 83 280 83T376 104Q425 188 425 305T384 423Q333 423 270 320T186 98ZM86 323Q86 549 71 738Q103 750 136 750T193 727T217 669Q217 609 205 481T190 306Q236 398 291 455T418 512T518
457T548 316Q548 194 476 94T295 -6Q233 -6 182 14Q184 -123 199 -237Q167 -249 133 -249T77 -227T55 -165Q55 -91 70 68T86 323Z" />
<glyph unicode="&#xff;" glyph-name="ydieresis" horiz-adv-x="577" d="M88 166L98 310Q98 407 70 494Q98 506 138 506Q219 506 219 417Q219 377 208 304T197 204T198 164T202 134Q209 100 242 100T314 153T376 272T400 375Q395 454 383 494Q415 506 448 506T504
485T527 429Q527 -117 327 -226Q282 -250 225 -250T126 -220T83 -136Q83 -100 110 -76T174 -51Q182 -51 194 -53Q191 -66 191 -76Q191 -164 252 -164Q289 -164 319 -124T366 -26Q402 92 402 188Q372 107 321 58T209 8Q88 8 88 166ZM135 726Q160 738 194 738Q244
738 244 686Q244 658 225 640T181 621T141 635T127 675T135 726ZM359 726Q385 738 418 738Q468 738 468 686Q468 658 449 640T405 621T365 635T351 675T359 726Z" />
<glyph unicode="&#x2013;" glyph-name="endash" horiz-adv-x="575" d="M508 304Q520 284 520 256T498 211T447 193T353 200T209 208T67 193Q55 213 55 241T77 286T128 304T222 297T367 289T508 304Z" />
<glyph unicode="&#x2014;" glyph-name="emdash" horiz-adv-x="875" d="M808 304Q820 284 820 256T799 211T740 193T587 200T326 208T67 193Q55 213 55 241T77 286T135 304T288 297T549 289T808 304Z" />
<glyph unicode="&#x2018;" glyph-name="quoteleft" horiz-adv-x="304" d="M254 693Q215 674 195 651T163 591Q207 578 207 532Q207 504 189 457Q157 441 123 441T70 460T50 514Q50 582 99 645T210 709Q235 709 254 693Z" />
<glyph unicode="&#x2019;" glyph-name="quoteright" horiz-adv-x="304" d="M50 458Q89 477 109 500T141 560Q97 573 97 619Q97 647 115 694Q147 710 181 710T234 691T254 637Q254 569 205 506T94 442Q69 442 50 458Z" />
<glyph unicode="&#x201a;" glyph-name="quotesinglbase" horiz-adv-x="251" d="M50 -27Q87 39 87 104Q87 127 83 147Q115 154 136 154Q201 154 201 98Q201 56 162 6T83 -45Q62 -45 50 -27Z" />
<glyph unicode="&#x201c;" glyph-name="quotedblleft" horiz-adv-x="504" d="M254 693Q215 674 195 651T163 591Q207 578 207 532Q207 504 189 457Q157 441 123 441T70 460T50 514Q50 582 99 645T210 709Q235 709 254 693ZM454 693Q415 674 395 651T363 591Q407
578 407 532Q407 504 389 457Q357 441 323 441T270 460T250 514Q250 582 299 645T410 709Q435 709 454 693Z" />
<glyph unicode="&#x201d;" glyph-name="quotedblright" horiz-adv-x="504" d="M50 458Q89 477 109 500T141 560Q97 573 97 619Q97 647 115 694Q147 710 181 710T234 691T254 637Q254 569 205 506T94 442Q69 442 50 458ZM250 458Q289 477 309 500T341 560Q297 573
297 619Q297 647 315 694Q347 710 381 710T434 691T454 637Q454 569 405 506T294 442Q269 442 250 458Z" />
<glyph unicode="&#x201e;" glyph-name="quotedblbase" horiz-adv-x="454" d="M50 -27Q87 39 87 104Q87 127 83 147Q115 154 136 154Q201 154 201 98Q201 56 162 6T83 -45Q62 -45 50 -27ZM253 -27Q290 39 290 104Q290 127 286 147Q317 154 339 154Q404 154 404
98Q404 56 365 6T286 -45Q265 -45 253 -27Z" />
<glyph unicode="&#x2022;" glyph-name="bullet" horiz-adv-x="335" d="M77 345Q130 370 181 370T259 343T285 263T248 173T161 135T81 160T50 231T77 345Z" />
<glyph unicode="&#x2039;" glyph-name="guilsinglleft" horiz-adv-x="467" d="M413 116Q404 76 357 76T219 144T50 297Q299 454 378 532Q417 521 417 487T368 404T229 287Q317 174 413 116Z" />
<glyph unicode="&#x203a;" glyph-name="guilsinglright" horiz-adv-x="467" d="M54 492Q63 532 110 532T248 464T417 311Q168 154 89 76Q50 87 50 121T99 204T238 321Q150 434 54 492Z" />
</font>
</defs>
</svg>
